<?xml version="1.0" standalone="no"?>
<!DOCTYPE svg PUBLIC "-//W3C//DTD SVG 1.1//EN" "http://www.w3.org/Graphics/SVG/1.1/DTD/svg11.dtd" >
<svg xmlns="http://www.w3.org/2000/svg">
<metadata>Generated by IcoMoon</metadata>
<defs>
<font id="IconSax" horiz-adv-x="1024">
<font-face units-per-em="1024" ascent="960" descent="-64" />
<missing-glyph horiz-adv-x="1024" />
<glyph unicode="&#x20;" horiz-adv-x="512" d="" />
<glyph unicode="&#xe900;" glyph-name="dcube" d="M824.734 717.6l-267.52 144.213c-28.16 15.36-62.293 15.36-90.453 0l-267.52-144.213c-19.627-10.667-31.573-31.147-31.573-54.613 0-23.040 11.947-43.947 31.573-54.613l267.52-144.215c14.080-7.68 29.867-11.52 45.227-11.52s31.147 3.84 45.227 11.52l267.52 144.215c19.627 10.667 31.573 31.147 31.573 54.613s-11.947 43.947-31.573 54.613zM422.827 414.293l-249.173 124.587c-19.2 9.387-41.387 8.533-59.307-2.56-18.347-11.52-29.013-30.72-29.013-52.053v-235.093c0-40.533 22.613-77.227 58.88-95.573l248.747-124.587c8.533-4.267 17.92-6.4 27.307-6.4 11.093 0 22.187 2.987 32 8.96 18.347 11.093 29.013 30.72 29.013 52.053v235.093c0.427 40.96-22.187 77.653-58.453 95.573zM909.683 536.314c-18.347 11.093-40.533 12.373-59.307 2.56l-248.747-124.585c-36.267-18.347-58.88-54.613-58.88-95.573v-235.093c0-21.333 10.667-40.96 29.013-52.053 9.813-5.973 20.907-8.96 32-8.96 9.387 0 18.773 2.133 27.307 6.4l248.747 124.587c36.267 18.347 58.88 54.613 58.88 95.573v235.093c0 21.333-10.667 40.533-29.013 52.052z" />
<glyph unicode="&#xe901;" glyph-name="dcube-copy" d="M512 437.329c-18.773 0-37.547 4.693-54.613 13.653l-277.76 149.76c-25.173 13.653-40.96 40.533-40.96 70.4s15.787 56.747 40.96 70.4l277.76 149.76c34.133 18.347 75.093 18.347 108.8 0l277.76-149.76c25.173-13.653 40.96-40.533 40.96-70.4s-15.787-56.747-40.96-70.4l-277.76-149.76c-16.64-9.387-35.413-13.653-54.187-13.653zM512 841.382c-8.107 0-16.64-2.133-24.32-6.4l-277.333-149.333c-7.253-3.84-7.68-11.947-7.68-14.507s0.427-10.667 7.68-14.080l277.76-149.76c15.36-8.107 32.853-8.107 48.213 0l277.76 149.76c6.827 3.84 7.68 11.947 7.68 14.080 0 2.56-0.427 10.667-7.68 14.080l-277.76 149.76c-7.68 4.267-16.213 6.4-24.32 6.4zM417.28-9.387c-11.947 0-24.32 2.987-35.413 8.533l-258.56 128.853c-43.093 21.76-69.973 65.28-69.973 113.493v244.053c0 27.733 14.080 52.906 37.547 67.413 23.893 14.507 52.48 15.787 77.227 3.413l258.56-128.853c43.093-21.76 69.973-64.853 69.973-113.493v-244.053c0-27.733-14.080-52.907-37.547-67.413-12.8-8.107-27.307-11.947-41.813-11.947zM132.693 500.907c-3.413 0-6.4-1.28-8.107-2.133-2.56-1.707-7.253-5.547-7.253-13.227v-244.053c0-23.893 13.227-45.653 34.56-56.32l258.133-129.28c6.827-3.413 12.373-0.853 14.933 0.427 2.56 1.707 7.253 5.547 7.253 13.227v244.053c0 23.893-13.227 45.653-34.56 56.32l-258.133 129.28c-2.56 1.28-4.693 1.707-6.827 1.707zM606.694-9.387c-14.507 0-29.013 3.84-41.813 11.947-23.467 14.507-37.547 39.68-37.547 67.413v244.053c0 48.213 26.88 91.733 69.973 113.493l258.133 129.28c24.747 12.373 53.76 11.093 77.227-3.413s37.547-39.68 37.547-67.413v-244.053c0-48.213-26.88-91.733-69.973-113.493l-258.133-129.28c-11.093-5.973-23.467-8.533-35.413-8.533zM891.281 500.907c-2.133 0-4.267-0.427-6.827-1.707l-258.133-129.28c-21.333-10.667-34.56-32-34.56-56.32v-244.053c0-7.68 4.693-11.52 7.253-13.227s8.107-3.84 14.933-0.427l258.133 129.28c21.333 10.667 34.56 32.427 34.56 56.32v244.053c0 7.68-4.693 11.52-7.253 13.227-1.707 0.853-4.693 2.133-8.107 2.133z" />
<glyph unicode="&#xe902;" glyph-name="d-cube-scan" d="M938.667 544c-17.493 0-32 14.507-32 32v85.333c0 110.080-71.253 181.333-181.333 181.333h-426.667c-110.080 0-181.333-71.253-181.333-181.333v-85.333c0-17.493-14.507-32-32-32s-32 14.507-32 32v85.333c0 146.773 98.56 245.333 245.333 245.333h426.667c146.773 0 245.333-98.56 245.333-245.333v-85.333c0-17.493-14.507-32-32-32zM725.333-10.667h-426.667c-146.773 0-245.333 98.56-245.333 245.333v85.333c0 17.493 14.507 32 32 32s32-14.507 32-32v-85.333c0-110.080 71.253-181.333 181.333-181.333h426.667c110.080 0 181.333 71.253 181.333 181.333v85.333c0 17.493 14.507 32 32 32s32-14.507 32-32v-85.333c0-146.773-98.56-245.333-245.333-245.333zM699.742 609.667l-160.427 86.613c-17.067 8.96-37.12 8.96-54.187 0l-160.855-86.613c-11.52-6.4-18.773-18.773-18.773-32.427 0-14.080 7.253-26.453 18.773-32.853l160.428-86.612c8.533-4.693 17.92-6.827 27.307-6.827s18.773 2.133 27.307 6.827l160.427 86.612c11.52 6.4 18.773 18.773 18.773 32.853 0 13.653-7.253 26.027-18.773 32.427zM458.24 428.011l-149.333 74.667c-11.52 5.547-24.747 5.12-35.84-1.707-10.667-6.827-17.067-18.347-17.067-31.147v-141.227c0-24.32 13.653-46.507 35.413-57.173l149.333-74.667c5.12-2.56 10.667-3.84 16.64-3.84 6.827 0 13.227 1.707 19.2 5.547 11.093 6.827 17.493 18.347 17.493 31.147v141.227c-0.427 24.32-13.653 46.080-35.84 57.173zM750.588 500.971c-11.093 6.827-24.32 7.253-35.84 1.707l-149.333-74.667c-21.76-11.093-35.413-32.853-35.413-57.173v-141.227c0-12.8 6.4-24.32 17.493-31.147 5.973-3.84 12.373-5.547 19.2-5.547 5.547 0 11.093 1.28 16.64 3.84l149.333 74.667c21.76 11.093 35.413 32.853 35.413 57.173v141.227c0 12.8-6.4 24.32-17.493 31.147z" />
<glyph unicode="&#xe903;" glyph-name="d-cube-scan-copy" d="M938.667 544c-17.493 0-32 14.507-32 32v85.333c0 110.080-71.253 181.333-181.333 181.333h-426.667c-110.080 0-181.333-71.253-181.333-181.333v-85.333c0-17.493-14.507-32-32-32s-32 14.507-32 32v85.333c0 146.773 98.56 245.333 245.333 245.333h426.667c146.773 0 245.333-98.56 245.333-245.333v-85.333c0-17.493-14.507-32-32-32zM725.333-10.667h-426.667c-146.773 0-245.333 98.56-245.333 245.333v85.333c0 17.493 14.507 32 32 32s32-14.507 32-32v-85.333c0-110.080 71.253-181.333 181.333-181.333h426.667c110.080 0 181.333 71.253 181.333 181.333v85.333c0 17.493 14.507 32 32 32s32-14.507 32-32v-85.333c0-146.773-98.56-245.333-245.333-245.333zM512.026 401.92c-5.547 0-11.093 1.284-16.213 4.271l-226.133 130.559c-15.36 8.96-20.48 28.585-11.52 43.945s28.587 20.481 43.52 11.521l209.92-121.599 208.64 120.745c15.36 8.96 34.987 3.415 43.52-11.518 8.96-15.36 3.413-34.988-11.52-43.948l-224.427-129.705c-4.693-2.56-10.24-4.271-15.787-4.271zM512 169.809c-17.493 0-32 14.507-32 32v232.107c0 17.493 14.507 32 32 32s32-14.507 32-32v-232.107c0-17.493-14.507-32-32-32zM512.009 159.996c-24.747 0-49.067 5.551-68.693 16.218l-136.532 75.942c-40.96 22.613-72.533 76.8-72.533 123.733v144.644c0 46.505 32 100.69 72.533 123.73l136.532 75.948c39.253 21.76 98.133 21.76 137.387 0l136.533-75.948c40.96-22.613 72.533-76.798 72.533-123.73v-144.644c0-46.507-32-100.693-72.533-123.733l-136.533-75.942c-19.627-10.667-43.947-16.218-68.693-16.218zM474.462 663.891l-136.532-75.945c-20.907-11.52-39.68-43.948-39.68-67.412v-144.644c0-23.893 18.773-55.893 39.68-67.413l136.532-75.942c19.627-10.667 55.467-10.667 75.093 0l136.533 75.942c20.907 11.52 39.68 43.947 39.68 67.413v144.644c0 23.892-18.773 55.892-39.68 67.412l-136.533 75.945c-19.627 10.667-55.467 10.667-75.093 0z" />
<glyph unicode="&#xe904;" glyph-name="d-rotate" d="M640.009-10.594c-11.52 0-22.187 6.4-27.733 16.213-5.547 10.24-5.547 22.187 0.427 32.427l44.8 74.667c8.96 14.933 28.587 20.053 43.947 11.093s20.053-28.587 11.093-43.947l-11.52-19.2c117.76 27.733 206.080 133.547 206.080 259.84 0 17.493 14.507 32 32 32s32-14.507 32-32c-0.427-182.613-148.907-331.093-331.093-331.093zM85.333 544c-17.493 0-32 14.507-32 32 0 182.187 148.48 330.667 330.667 330.667 11.52 0 22.187-6.4 27.733-16.213 5.547-10.24 5.547-22.187-0.427-32.427l-44.8-74.667c-8.96-14.933-28.587-20.053-43.947-10.667-14.933 8.96-20.053 28.587-10.667 43.947l11.52 19.2c-118.187-27.733-206.080-133.547-206.080-259.84 0-17.493-14.507-32-32-32zM699.742 609.667l-160.427 86.613c-17.067 8.96-37.12 8.96-54.187 0l-160.855-86.613c-11.52-6.4-18.773-18.773-18.773-32.427 0-14.080 7.253-26.453 18.773-32.853l160.428-86.612c8.533-4.693 17.92-6.827 27.307-6.827s18.773 2.133 27.307 6.827l160.427 86.612c11.52 6.4 18.773 18.773 18.773 32.853 0 13.653-7.253 26.027-18.773 32.427zM458.24 428.011l-149.333 74.667c-11.52 5.547-24.747 5.12-35.84-1.707-10.667-6.827-17.067-18.347-17.067-31.147v-141.227c0-24.32 13.653-46.507 35.413-57.173l149.333-74.667c5.12-2.56 10.667-3.84 16.64-3.84 6.827 0 13.227 1.707 19.2 5.547 11.093 6.827 17.493 18.347 17.493 31.147v141.227c-0.427 24.32-13.653 46.080-35.84 57.173zM750.588 500.971c-11.093 6.827-24.32 7.253-35.84 1.707l-149.333-74.667c-21.76-11.093-35.413-32.853-35.413-57.173v-141.227c0-12.8 6.4-24.32 17.493-31.147 5.973-3.84 12.373-5.547 19.2-5.547 5.547 0 11.093 1.28 16.64 3.84l149.333 74.667c21.76 11.093 35.413 32.853 35.413 57.173v141.227c0 12.8-6.4 24.32-17.493 31.147z" />
<glyph unicode="&#xe905;" glyph-name="d-rotate-copy" d="M512.026 401.924c-5.547 0-11.093 1.28-16.213 4.267l-226.133 130.558c-15.36 8.96-20.481 28.586-11.521 43.52 8.96 15.36 28.16 20.48 43.947 11.52l209.92-121.598 208.64 120.745c15.36 8.96 34.987 3.414 43.947-11.52 8.96-15.36 3.413-34.987-11.52-43.52l-224.427-129.705c-5.547-2.56-11.093-4.267-16.64-4.267zM512 169.809c-17.493 0-32 14.507-32 32v232.107c0 17.493 14.507 32 32 32s32-14.507 32-32v-232.107c0-17.493-14.507-32-32-32zM512.009 160c-24.747 0-49.062 5.547-68.689 16.213l-136.535 75.947c-40.96 22.613-72.534 76.8-72.534 123.733v144.64c0 46.505 32.001 101.118 72.534 123.731l136.535 75.947c39.253 21.76 98.129 21.76 137.382 0l136.533-75.947c40.96-22.613 72.538-76.8 72.538-123.731v-144.64c0-46.507-32.004-101.12-72.538-123.733l-136.533-75.947c-19.627-10.667-43.947-16.213-68.693-16.213zM512.009 671.998c-14.080 0-27.733-2.56-37.547-8.107l-136.531-75.947c-20.907-11.52-39.681-43.947-39.681-67.411v-144.64c0-23.893 18.775-55.893 39.681-67.413l136.531-75.947c19.627-11.093 55.467-11.093 75.093 0l136.533 75.947c20.907 11.52 39.684 43.947 39.684 67.413v144.64c0 23.891-18.778 55.891-39.684 67.411l-136.533 75.947c-9.813 5.547-23.467 8.107-37.547 8.107zM640.009-10.667c-11.52 0-22.187 6.4-27.733 16.213-5.547 10.24-5.547 22.187 0.427 32.427l44.8 74.667c8.96 14.933 28.587 20.053 43.947 11.093s20.053-28.587 11.093-43.947l-11.52-19.2c117.76 27.733 206.080 133.547 206.080 259.84 0 17.493 14.507 32 32 32s32-14.507 32-32c-0.427-182.613-148.907-331.093-331.093-331.093zM85.333 544c-17.493 0-32 14.507-32 32 0 182.187 148.48 330.667 330.667 330.667 11.52 0 22.186-6.4 27.733-16.213 5.547-10.24 5.548-22.187-0.426-32.427l-44.8-74.667c-8.96-14.933-28.587-20.053-43.947-11.093s-20.054 28.587-11.094 43.947l11.521 19.2c-117.76-27.733-206.081-133.547-206.081-259.84 0.427-17.067-14.080-31.573-31.573-31.573z" />
<glyph unicode="&#xe906;" glyph-name="d-square" d="M690.773 860.667h-357.547c-155.307 0-247.893-93.013-247.893-248.32v-357.119c0-155.307 92.587-247.893 247.893-247.893h357.12c155.307 0 247.893 92.587 247.893 247.893v357.119c0.427 155.307-92.16 248.32-247.467 248.32zM493.653 229.628c0-12.8-6.4-24.32-17.493-31.147-5.973-3.84-12.373-5.547-19.2-5.547-5.547 0-11.093 1.28-16.64 3.84l-149.333 74.667c-21.333 11.093-34.987 32.853-34.987 57.173v141.227c0 12.8 6.4 24.32 17.493 31.147s24.32 7.253 35.84 1.707l149.333-74.667c21.76-11.093 35.413-32.853 35.413-57.173v-141.227h-0.427zM484.693 457.894l-160.427 86.612c-11.52 6.4-18.773 18.773-18.773 32.853 0 13.653 7.253 26.454 18.773 32.854l160.427 86.613c17.067 8.96 37.12 8.96 54.187 0l160.427-86.613c11.52-6.4 18.773-18.774 18.773-32.854s-7.253-26.453-18.773-32.853l-160.427-86.612c-8.533-4.693-17.92-6.827-27.307-6.827s-18.347 2.133-26.88 6.827zM768 328.614c0-24.32-13.653-46.507-35.413-57.173l-149.333-74.667c-5.12-2.56-10.667-3.84-16.64-3.84-6.827 0-13.227 1.707-19.2 5.547-11.093 6.827-17.493 18.347-17.493 31.147v141.227c0 24.32 13.653 46.507 35.413 57.173l149.333 74.667c11.52 5.547 24.747 5.12 35.84-1.707s17.493-18.347 17.493-31.147v-141.227z" />
<glyph unicode="&#xe907;" glyph-name="d-square-copy" d="M640-10.667h-256c-231.68 0-330.667 98.987-330.667 330.667v256c0 231.68 98.987 330.667 330.667 330.667h256c231.68 0 330.667-98.987 330.667-330.667v-256c0-231.68-98.987-330.667-330.667-330.667zM384 842.667c-196.693 0-266.667-69.973-266.667-266.667v-256c0-196.693 69.973-266.667 266.667-266.667h256c196.693 0 266.667 69.973 266.667 266.667v256c0 196.693-69.973 266.667-266.667 266.667h-256zM512.026 401.924c-5.547 0-11.093 1.28-16.213 4.267l-226.133 130.558c-15.36 8.96-20.481 28.586-11.521 43.52 8.96 15.36 28.588 20.48 43.521 11.52l209.92-121.598 208.64 120.745c15.36 8.96 34.987 3.414 43.52-11.52s3.413-34.987-11.52-43.52l-224.427-129.705c-4.693-2.56-10.24-4.267-15.787-4.267zM512 169.809c-17.493 0-32 14.507-32 32v232.107c0 17.493 14.507 32 32 32s32-14.507 32-32v-232.107c0-17.493-14.507-32-32-32zM512.009 160c-24.747 0-49.062 5.547-68.689 16.213l-136.535 75.947c-40.96 22.613-72.534 76.8-72.534 123.733v144.64c0 46.505 32.001 100.691 72.534 123.731l136.535 75.947c39.253 21.76 98.129 21.76 137.382 0l136.533-75.947c40.96-22.613 72.538-76.8 72.538-123.731v-144.64c0-46.507-32.004-100.693-72.538-123.733l-136.533-75.947c-19.627-11.093-43.947-16.213-68.693-16.213zM512.009 671.998c-14.080 0-27.733-2.56-37.547-8.107l-136.531-75.947c-20.907-11.52-39.681-43.947-39.681-67.411v-144.64c0-23.893 18.775-55.893 39.681-67.413l136.531-75.947c19.627-11.093 55.467-11.093 75.093 0l136.533 75.947c20.907 11.52 39.684 43.947 39.684 67.413v144.64c0 23.891-18.778 55.891-39.684 67.411l-136.533 75.947c-9.813 5.547-23.467 8.107-37.547 8.107z" />
<glyph unicode="&#xe908;" glyph-name="square" d="M512 170.667v-37.547c0-79.787-32-111.787-112.213-111.787h-202.667c-61.867 0-111.787 49.92-111.787 111.787v202.667c0 80.213 32 112.213 111.787 112.213h37.547v-149.333c0-70.827 57.173-128 128-128h149.333zM725.333 384v-37.12c0-61.867-50.347-112.213-112.213-112.213h-202.667c-79.787 0-111.787 32-111.787 112.213v202.667c0 61.867 49.92 111.787 111.787 111.787h37.547v-149.333c0-70.827 57.173-128 128-128h149.333zM938.667 762.88v-202.667c0-80.213-32-112.213-112.213-112.213h-202.667c-79.787 0-111.787 32-111.787 112.213v202.667c0 79.787 32 111.787 111.787 111.787h202.667c80.213 0 112.213-32 112.213-111.787z" />
<glyph unicode="&#xe909;" glyph-name="square-copy" d="M399.787-10.667h-202.667c-98.133 0-143.787 45.653-143.787 143.787v202.667c0 98.56 45.653 144.213 143.787 144.213h101.547c17.493 0 32-14.507 32-32v-101.12c0-62.293 17.92-80.213 79.787-80.213h101.547c17.493 0 32-14.507 32-32v-101.547c0-98.133-45.653-143.787-144.213-143.787zM197.12 416c-61.867 0-79.787-17.92-79.787-80.213v-202.667c0-61.867 17.92-79.787 79.787-79.787h202.667c62.293 0 80.213 17.92 80.213 79.787v69.547h-69.547c-98.133 0-143.787 45.653-143.787 144.213v69.12h-69.547zM613.12 202.667h-202.667c-98.133 0-143.787 45.653-143.787 144.213v202.667c0 98.133 45.653 143.787 143.787 143.787h101.547c17.493 0 32-14.507 32-32v-101.12c0-62.293 17.92-80.213 79.787-80.213h101.547c17.493 0 32-14.507 32-32v-101.12c0-98.56-45.653-144.213-144.213-144.213zM410.453 629.333c-61.867 0-79.787-17.92-79.787-79.787v-202.667c0-62.293 17.92-80.213 79.787-80.213h202.667c62.293 0 80.213 17.92 80.213 80.213v69.12h-69.547c-98.133 0-143.787 45.653-143.787 144.213v69.12h-69.547zM826.453 416h-202.667c-98.133 0-143.787 45.653-143.787 144.213v202.667c0 98.133 45.653 143.787 143.787 143.787h202.667c98.56 0 144.213-45.653 144.213-143.787v-202.667c0-98.56-45.653-144.213-144.213-144.213zM623.787 842.667c-61.867 0-79.787-17.92-79.787-79.787v-202.667c0-62.293 17.92-80.213 79.787-80.213h202.667c62.293 0 80.213 17.92 80.213 80.213v202.667c0 61.867-17.92 79.787-80.213 79.787h-202.667z" />
<glyph unicode="&#xe90a;" glyph-name="support" d="M768 874.667h-512c-70.827 0-128-56.747-128-126.72v-465.493c0-69.973 57.173-126.72 128-126.72h32.427c34.133 0 66.56-13.227 90.453-37.12l72.96-72.107c33.28-32.853 87.467-32.853 120.747 0l72.96 72.107c23.893 23.893 56.747 37.12 90.453 37.12h32c70.827 0 128 56.747 128 126.72v465.493c0 69.973-57.173 126.72-128 126.72zM442.88 404.907c17.493 0 32-14.507 32-32s-14.507-32-32-32h-114.347c-18.773 0-36.267 8.96-47.36 24.32-10.667 14.507-13.227 32.427-8.107 49.493 14.933 45.653 51.627 70.4 84.053 92.587 34.133 23.040 53.333 37.547 53.333 62.293 0 22.187-17.92 40.107-40.107 40.107s-39.68-18.347-39.68-40.533c0-17.493-14.507-32-32-32s-32 14.507-32 32c0 57.173 46.507 104.107 104.107 104.107s104.107-46.507 104.107-104.107c0-60.16-45.227-90.88-81.493-115.627-22.613-15.36-43.947-29.867-54.613-49.067h104.107v0.427zM725.333 401.92h-8.96v-29.44c0-17.493-14.507-32-32-32s-32 14.507-32 32v29.44h-83.627c0 0 0 0-0.427 0-20.907 0-40.107 11.093-50.773 29.013-10.667 18.347-10.667 40.96 0 58.88 29.013 49.92 62.72 106.667 93.44 156.16 13.653 21.76 39.68 31.573 64 24.747 24.32-7.253 41.387-29.44 40.96-55.040v-150.187h9.387c17.493 0 32-14.507 32-32s-14.507-31.573-32-31.573zM652.335 465.894v125.439c-25.173-40.96-51.2-84.906-74.667-125.012h74.667v-0.427z" />
<glyph unicode="&#xe90b;" glyph-name="support-copy" d="M512-10.667c-29.867 0-60.16 11.52-82.773 34.133l-72.96 72.107c-18.347 17.92-42.241 27.733-67.841 27.733h-32.426c-88.32 0-160 71.253-160 158.72v465.494c0 87.467 71.68 158.719 160 158.719h512c88.32 0 160-71.252 160-158.719v-465.494c0-87.467-71.68-158.72-160-158.72h-32.427c-25.6 0-49.92-9.813-67.84-27.733l-72.96-72.107c-22.613-22.613-52.907-34.133-82.773-34.133zM256 842.667c-52.907 0-96-42.665-96-94.719v-465.495c0-52.48 43.093-94.72 96-94.72h32.426c42.667 0 82.774-16.636 113.067-46.502l72.96-72.111c20.907-20.48 54.613-20.48 75.52 0l72.96 72.111c30.293 29.867 70.4 46.502 113.067 46.502h32c52.907 0 96 42.667 96 94.72v465.495c0 52.48-43.093 94.719-96 94.719h-512zM442.889 340.907h-114.345c-18.773 0-36.267 8.964-47.36 24.324-10.667 14.507-13.227 32.422-8.107 49.489 14.933 45.653 51.627 70.4 84.053 92.587 34.133 23.040 53.333 37.546 53.333 62.292 0 22.187-17.92 40.109-40.107 40.109s-40.106-17.923-40.106-40.109c0-17.493-14.507-32-32-32s-32 14.507-32 32c0 57.173 46.506 104.109 104.106 104.109s104.106-46.509 104.106-104.109c0-60.159-45.227-90.879-81.492-115.626-22.613-15.36-43.948-29.867-54.614-49.067h104.106c17.493 0 32-14.507 32-32s-14.080-32-31.573-32zM684.326 340.911c-17.493 0-32 14.507-32 32v29.44h-83.627c0 0 0 0-0.427 0-20.907 0-40.107 11.089-50.773 29.009-10.667 18.347-10.667 40.964 0 58.884 29.013 49.918 62.72 106.666 93.44 156.16 13.653 21.76 39.68 31.571 64 24.745 24.32-7.253 41.387-29.441 40.96-55.041v-150.183h9.387c17.493 0 32-14.507 32-32s-14.507-32-32-32h-8.96v-29.444c0-17.493-14.080-31.569-32-31.569zM652.326 591.362c-25.173-40.96-51.2-84.905-74.667-125.011h74.667v125.011z" />
<glyph unicode="&#xe90c;" glyph-name="aave-aave" d="M512 874.667c-235.52 0-426.667-191.147-426.667-426.667s191.147-426.667 426.667-426.667c235.52 0 426.667 191.147 426.667 426.667s-191.147 426.667-426.667 426.667zM695.467 247.893c-4.267-1.707-8.533-2.56-12.8-2.56-12.373 0-23.893 7.253-29.44 19.2l-141.227 317.867-45.653-102.4h45.653c17.493 0 32-14.507 32-32s-14.507-32-32-32h-73.813l-67.413-151.467c-7.253-16.213-26.453-23.467-42.24-16.213-16.213 7.253-23.467 26.027-16.213 42.24l55.893 125.867h-26.88c-17.493 0-32 14.507-32 32s14.507 32 32 32h55.039l86.188 194.133c10.24 23.040 48.213 23.040 58.453 0l170.667-384c7.253-16.213 0-35.413-16.213-42.667z" />
<glyph unicode="&#xe90d;" glyph-name="aave-aave-copy" d="M682.658 245.338c-12.373 0-23.893 7.253-29.44 19.2l-141.227 317.866-141.225-318.292c-7.253-16.213-26.453-23.467-42.24-16.213-16.213 7.253-23.467 26.027-16.213 42.24l170.665 383.999c10.24 23.040 48.213 23.040 58.453 0l170.667-383.999c7.253-16.213 0-34.987-16.213-42.24-4.267-1.707-8.96-2.56-13.227-2.56zM512 416h-170.667c-17.493 0-32 14.507-32 32s14.507 32 32 32h170.667c17.493 0 32-14.507 32-32s-14.507-32-32-32zM512-10.667c-253.013 0-458.667 205.653-458.667 458.667s205.653 458.667 458.667 458.667c253.013 0 458.667-205.653 458.667-458.667s-205.653-458.667-458.667-458.667zM512 842.667c-217.6 0-394.667-177.067-394.667-394.667s177.067-394.667 394.667-394.667c217.6 0 394.667 177.067 394.667 394.667s-177.067 394.667-394.667 394.667z" />
<glyph unicode="&#xe90e;" glyph-name="activity" d="M690.773 874.667h-357.547c-155.307 0-247.893-92.587-247.893-247.893v-357.12c0-155.733 92.587-248.32 247.893-248.32h357.12c155.307 0 247.893 92.587 247.893 247.893v357.547c0.427 155.307-92.16 247.893-247.467 247.893zM736.427 535.040l-98.56-127.147c-12.373-15.787-29.867-26.027-49.92-28.16-20.053-2.56-39.68 2.987-55.467 15.36l-78.080 61.44c-2.987 2.56-6.4 2.56-8.107 2.133-1.707 0-4.693-0.853-7.253-4.267l-101.547-131.84c-6.4-8.107-15.787-12.373-25.173-12.373-6.827 0-13.653 2.133-19.627 6.827-14.080 10.667-16.64 30.72-5.973 44.8l101.547 131.84c12.373 15.787 29.867 26.027 49.92 28.587 19.627 2.56 39.68-2.987 55.467-15.36l78.080-61.44c2.987-2.56 5.973-2.56 8.107-2.133 1.707 0 4.693 0.853 7.253 4.267l98.56 127.147c10.667 14.080 31.147 16.64 44.8 5.547 14.080-11.52 16.64-31.573 5.973-45.227z" />
<glyph unicode="&#xe90f;" glyph-name="activity-copy" d="M640-10.667h-256c-231.68 0-330.667 98.987-330.667 330.667v256c0 231.68 98.987 330.667 330.667 330.667h256c231.68 0 330.667-98.987 330.667-330.667v-256c0-231.68-98.987-330.667-330.667-330.667zM384 842.667c-196.693 0-266.667-69.973-266.667-266.667v-256c0-196.693 69.973-266.667 266.667-266.667h256c196.693 0 266.667 69.973 266.667 266.667v256c0 196.693-69.973 266.667-266.667 266.667h-256zM312.751 309.76c-6.827 0-13.653 2.133-19.627 6.827-14.080 10.667-16.64 30.72-5.973 44.8l101.547 131.84c12.373 15.787 29.867 26.027 49.92 28.587 19.627 2.56 39.68-2.987 55.467-15.36l78.080-61.44c2.987-2.56 5.973-2.56 8.107-2.133 1.707 0 4.693 0.853 7.253 4.267l98.56 127.146c10.667 14.080 31.147 16.64 44.8 5.547 14.080-10.667 16.64-30.72 5.547-44.8l-98.56-127.146c-12.373-15.787-29.867-26.027-49.92-28.16-20.053-2.56-39.68 2.987-55.467 15.36l-78.080 61.44c-2.987 2.56-6.4 2.56-8.107 2.133-1.707 0-4.693-0.853-7.253-4.267l-101.546-131.84c-5.547-8.533-14.933-12.8-24.747-12.8z" />
<glyph unicode="&#xe910;" glyph-name="add" d="M690.773 874.667h-357.547c-155.307 0-247.893-92.587-247.893-247.893v-357.12c0-155.733 92.587-248.32 247.893-248.32h357.12c155.307 0 247.893 92.587 247.893 247.893v357.547c0.427 155.307-92.16 247.893-247.467 247.893zM768 416h-224v-224c0-17.493-14.507-32-32-32s-32 14.507-32 32v224h-224c-17.493 0-32 14.507-32 32s14.507 32 32 32h224v224c0 17.493 14.507 32 32 32s32-14.507 32-32v-224h224c17.493 0 32-14.507 32-32s-14.507-32-32-32z" />
<glyph unicode="&#xe911;" glyph-name="add-circle" d="M512 874.667c-235.093 0-426.667-191.573-426.667-426.667s191.573-426.667 426.667-426.667c235.093 0 426.667 191.573 426.667 426.667s-191.573 426.667-426.667 426.667zM682.667 416h-138.667v-138.667c0-17.493-14.507-32-32-32s-32 14.507-32 32v138.667h-138.667c-17.493 0-32 14.507-32 32s14.507 32 32 32h138.667v138.667c0 17.493 14.507 32 32 32s32-14.507 32-32v-138.667h138.667c17.493 0 32-14.507 32-32s-14.507-32-32-32z" />
<glyph unicode="&#xe912;" glyph-name="add-circle-copy" d="M512-10.667c-253.013 0-458.667 205.653-458.667 458.667s205.653 458.667 458.667 458.667c253.013 0 458.667-205.653 458.667-458.667s-205.653-458.667-458.667-458.667zM512 842.667c-217.6 0-394.667-177.067-394.667-394.667s177.067-394.667 394.667-394.667c217.6 0 394.667 177.067 394.667 394.667s-177.067 394.667-394.667 394.667zM682.667 416h-341.333c-17.493 0-32 14.507-32 32s14.507 32 32 32h341.333c17.493 0 32-14.507 32-32s-14.507-32-32-32zM512 245.333c-17.493 0-32 14.507-32 32v341.333c0 17.493 14.507 32 32 32s32-14.507 32-32v-341.333c0-17.493-14.507-32-32-32z" />
<glyph unicode="&#xe913;" glyph-name="add-copy" d="M768 416h-512c-17.493 0-32 14.507-32 32s14.507 32 32 32h512c17.493 0 32-14.507 32-32s-14.507-32-32-32zM512 160c-17.493 0-32 14.507-32 32v512c0 17.493 14.507 32 32 32s32-14.507 32-32v-512c0-17.493-14.507-32-32-32z" />
<glyph unicode="&#xe914;" glyph-name="additem" d="M573.013 728.32v-57.173c-111.787-8.96-175.36-80.64-175.36-198.827v-194.987h-165.973c-97.707 0-146.347 48.64-146.347 146.347v304.64c0 97.707 48.64 146.347 146.347 146.347h194.987c97.707 0 146.347-48.64 146.347-146.347zM792.333 618.667h-194.987c-97.707 0-146.347-48.64-146.347-146.347v-304.64c0-97.707 48.64-146.347 146.347-146.347h194.987c97.707 0 146.347 48.64 146.347 146.347v304.64c0 97.707-48.64 146.347-146.347 146.347zM773.559 288h-37.547v-37.547c0-17.493-14.507-32-32-32s-32 14.507-32 32v37.547h-37.547c-17.493 0-32 14.507-32 32s14.507 32 32 32h37.547v37.547c0 17.493 14.507 32 32 32s32-14.507 32-32v-37.547h37.547c17.493 0 32-14.507 32-32s-14.507-32-32-32z" />
<glyph unicode="&#xe915;" glyph-name="additem-copy" d="M341.333 245.333h-109.653c-114.773 0-178.347 63.147-178.347 178.347v304.64c0 114.773 63.147 178.347 178.347 178.347h194.987c114.773 0 178.347-63.147 178.347-178.347 0-17.493-14.507-32-32-32s-32 14.507-32 32c0 80.213-34.133 114.347-114.347 114.347h-194.987c-80.213 0-114.347-34.133-114.347-114.347v-304.64c0-80.213 34.133-114.347 114.347-114.347h109.653c17.493 0 32-14.507 32-32s-14.507-32-32-32zM792.333-10.667h-194.987c-114.773 0-178.346 63.147-178.346 178.347v304.64c0 114.773 63.146 178.347 178.346 178.347h194.987c114.773 0 178.347-63.147 178.347-178.347v-304.64c0-115.2-63.147-178.347-178.347-178.347zM597.346 586.667c-80.213 0-114.347-34.133-114.347-114.347v-304.64c0-80.213 34.133-114.347 114.347-114.347h194.987c80.213 0 114.347 34.133 114.347 114.347v304.64c0 80.213-34.133 114.347-114.347 114.347h-194.987zM773.585 288h-138.667c-17.493 0-32 14.507-32 32s14.507 32 32 32h138.667c17.493 0 32-14.507 32-32s-14.507-32-32-32zM704 218.458c-17.493 0-32 14.507-32 32v138.667c0 17.493 14.507 32 32 32s32-14.507 32-32v-138.667c0-17.493-14.507-32-32-32z" />
<glyph unicode="&#xe916;" glyph-name="add-square" d="M690.773 874.667h-357.547c-155.307 0-247.893-92.587-247.893-247.893v-357.12c0-155.733 92.587-248.32 247.893-248.32h357.12c155.307 0 247.893 92.587 247.893 247.893v357.547c0.427 155.307-92.16 247.893-247.467 247.893zM682.667 416h-138.667v-138.667c0-17.493-14.507-32-32-32s-32 14.507-32 32v138.667h-138.667c-17.493 0-32 14.507-32 32s14.507 32 32 32h138.667v138.667c0 17.493 14.507 32 32 32s32-14.507 32-32v-138.667h138.667c17.493 0 32-14.507 32-32s-14.507-32-32-32z" />
<glyph unicode="&#xe917;" glyph-name="add-square-copy" d="M682.667 416h-341.333c-17.493 0-32 14.507-32 32s14.507 32 32 32h341.333c17.493 0 32-14.507 32-32s-14.507-32-32-32zM512 245.333c-17.493 0-32 14.507-32 32v341.333c0 17.493 14.507 32 32 32s32-14.507 32-32v-341.333c0-17.493-14.507-32-32-32zM640-10.667h-256c-231.68 0-330.667 98.987-330.667 330.667v256c0 231.68 98.987 330.667 330.667 330.667h256c231.68 0 330.667-98.987 330.667-330.667v-256c0-231.68-98.987-330.667-330.667-330.667zM384 842.667c-196.693 0-266.667-69.973-266.667-266.667v-256c0-196.693 69.973-266.667 266.667-266.667h256c196.693 0 266.667 69.973 266.667 266.667v256c0 196.693-69.973 266.667-266.667 266.667h-256z" />
<glyph unicode="&#xe918;" glyph-name="airdrop" d="M602.867 476.22c16.64 69.975-44.373 130.988-114.347 114.348-32.853-8.107-59.733-34.987-67.838-67.842-16.64-69.973 44.372-130.987 114.345-114.347 33.28 8.107 60.16 34.987 67.84 67.84zM256.893 193.28c-7.68 0-15.787 2.987-21.76 8.533-82.773 76.8-130.133 185.173-130.133 297.813 0 224.427 182.613 407.040 407.038 407.040 224.427 0 407.040-182.613 407.040-407.040 0-113.493-45.653-218.453-128.427-296.533-12.8-11.947-33.28-11.52-45.227 1.28s-11.52 33.28 1.28 45.227c69.973 65.707 108.373 154.027 108.373 249.6 0 189.013-154.027 343.040-343.040 343.040s-343.038-154.027-343.038-343.040c0-96.427 38.827-185.173 109.653-250.88 12.8-11.947 13.653-32.427 1.707-45.227-6.4-6.4-14.933-9.813-23.467-9.813zM682.645 307.26c-7.68 0-15.787 2.987-21.76 8.533-12.8 11.947-13.653 32.427-1.28 45.227 35.413 37.547 55.040 87.040 55.040 138.24 0 111.787-90.88 202.24-202.24 202.24-111.359 0-202.239-90.88-202.239-202.24 0-51.627 19.627-100.693 55.040-138.24 11.947-12.8 11.52-33.28-1.28-45.227-12.8-12.373-33.28-11.52-45.227 1.28-46.507 49.493-72.533 114.347-72.533 182.187 0 146.774 119.467 266.24 266.239 266.24 146.773 0 266.24-119.467 266.24-266.24 0-67.84-25.6-132.693-72.533-182.187-6.4-6.4-14.933-9.813-23.467-9.813zM439.505 249.173l-61.442-76.373c-48.64-61.013-5.12-151.467 72.535-151.467h122.453c78.080 0 121.6 90.453 72.533 151.040l-61.44 76.373c-36.693 46.933-107.52 46.933-144.64 0.427z" />
<glyph unicode="&#xe919;" glyph-name="airdrop-copy" d="M511.979 373.76c-33.28 0-64.853 12.8-89.175 36.693-31.147 31.147-43.52 75.947-33.28 119.893 10.667 44.8 46.508 80.64 91.308 91.307 43.52 10.667 88.32-1.708 119.893-33.281s43.52-75.946 33.28-119.892c-10.667-44.8-46.507-80.64-91.307-91.307-10.24-2.133-20.48-3.413-30.72-3.413zM511.979 561.492c-5.12 0-10.667-0.852-15.787-2.132-21.333-5.12-38.827-22.612-43.947-43.946-5.547-22.187 0.427-43.947 16.213-59.307 15.787-15.787 37.12-21.333 59.733-16.213 21.333 5.12 38.827 22.613 43.947 43.947 5.547 22.187-0.427 43.947-16.213 59.306-11.947 11.947-27.307 18.346-43.947 18.346zM256.852 193.28c-7.68 0-15.787 2.987-21.76 8.533-82.773 76.8-130.133 185.173-130.133 297.813 0 224.428 182.613 407.040 407.042 407.040 224.427 0 407.036-182.612 407.036-407.040 0-113.493-45.649-218.453-128.422-296.533-12.8-11.947-33.28-11.52-45.227 1.28s-11.52 33.28 1.28 45.227c69.973 65.707 108.369 154.027 108.369 249.6 0 189.014-154.022 343.040-343.036 343.040s-343.042-154.026-343.042-343.040c0-96.427 38.826-185.173 109.653-250.88 12.8-11.947 13.654-32.427 1.707-45.227-6.4-6.4-14.933-9.813-23.467-9.813zM682.645 307.2c-7.68 0-15.787 2.987-21.76 8.533-12.8 11.947-13.653 32.427-1.28 45.227 35.413 37.547 55.040 87.040 55.040 138.24 0 111.785-90.88 202.237-202.24 202.237s-202.239-90.88-202.239-202.237c0-51.627 19.626-100.693 55.040-138.24 11.947-12.8 11.52-33.28-1.28-45.227s-33.28-11.524-45.227 1.276c-46.507 49.493-72.533 114.351-72.533 182.191 0 146.771 119.466 266.237 266.239 266.237s266.24-119.466 266.24-266.237c0-67.84-25.6-132.698-72.533-182.191-6.4-6.4-14.933-9.809-23.467-9.809zM573.427-10.671h-122.453c-48.64 0-91.734 27.307-112.641 70.827s-15.36 94.293 14.933 132.267l61.44 76.373c23.894 29.867 59.307 46.933 97.707 46.933s73.813-17.067 97.707-46.933l61.44-76.373c30.293-37.973 36.267-88.747 14.933-132.267-21.76-43.52-64.853-70.827-113.067-70.827zM464.201 229.116l-61.44-76.373c-14.933-18.773-17.92-43.093-7.253-64.427 10.24-21.76 31.146-34.56 55.040-34.56h122.453c23.893 0 44.8 12.8 55.040 34.56s7.68 45.653-7.253 64.427l-61.44 76.373c-23.040 29.013-71.68 29.013-95.147 0z" />
<glyph unicode="&#xe91a;" glyph-name="airplane" d="M855.407 506.513l-199.253 85.76-44.373 18.773c-6.827 3.413-12.8 12.373-12.8 20.053v130.56c0 40.96-30.293 89.6-66.987 108.373-12.8 6.4-28.16 6.4-40.96 0-36.267-18.773-66.56-67.84-66.56-108.8v-130.56c0-7.68-5.973-16.64-12.8-20.053l-243.2-104.534c-26.88-11.093-48.64-44.8-48.64-73.813v-56.32c0-36.267 27.307-54.187 61.013-39.68l213.76 92.16c16.64 7.253 30.293-1.707 30.293-20.053v-124.16c0-9.813-5.547-23.893-12.373-30.72l-98.987-99.413c-10.24-10.24-14.933-30.293-10.24-44.8l19.2-58.027c7.68-25.173 36.267-37.12 59.733-25.173l101.547 85.333c15.36 13.227 40.533 13.227 55.893 0l101.547-85.333c23.467-11.52 52.053 0 60.587 25.173l19.2 58.027c4.693 14.080 0 34.56-10.24 44.8l-98.987 99.413c-7.253 6.827-12.8 20.907-12.8 30.72v124.16c0 18.347 13.227 26.88 30.293 20.053l213.76-92.16c33.707-14.507 61.013 3.413 61.013 39.68v56.32c0 29.013-21.76 62.72-48.64 74.24z" />
<glyph unicode="&#xe91b;" glyph-name="airplane-copy" d="M366.090-2.138c-9.387 0-19.2 1.707-28.16 5.547-20.053 8.533-35.413 25.173-42.24 46.080l-18.773 56.32c-8.533 25.6-0.853 57.6 17.92 76.8l96.853 97.28c1.28 1.28 2.987 5.973 2.987 8.107v105.387l-194.56-84.053c-26.027-11.093-52.48-9.813-72.533 3.413s-32 37.12-32 64.853v55.040c0 41.813 29.867 86.613 67.84 101.548l230.827 99.84v121.173c0 51.627 36.265 110.933 82.345 134.827 22.187 11.093 47.787 11.093 69.547 0 46.507-23.893 82.773-82.773 82.773-134.4v-121.173l232.107-99.84c37.973-16.215 66.987-59.735 66.987-101.975v-55.040c0-28.16-11.52-51.627-32-64.853s-46.507-14.507-72.533-3.84l-194.56 84.053v-105.387c0-1.707 1.707-5.973 2.987-7.253l97.28-97.707c18.773-18.773 26.453-51.627 17.92-76.8l-18.773-56.32c-7.253-20.907-22.613-37.547-43.093-45.653-20.053-8.107-42.24-7.253-61.44 2.133-2.133 1.28-4.267 2.56-6.4 4.267l-99.413 83.627c-3.413 2.987-10.24 2.56-13.227 0l-99.412-83.627c-1.707-1.707-3.84-2.987-5.973-3.84-10.24-5.973-21.76-8.533-33.28-8.533zM407.904 463.356c9.813 0 19.198-2.56 27.305-8.107 14.933-9.813 23.467-26.453 23.467-46.080v-121.6c0-18.347-8.96-40.107-21.76-52.907l-96.852-97.28c-1.707-2.133-3.413-8.533-2.56-11.093l18.773-56.747c1.28-4.267 4.267-5.973 5.973-6.827 1.28-0.427 3.413-1.28 5.973-0.427l95.572 80.64c26.88 23.040 69.12 23.040 96 0l95.147-80.213c2.987-0.427 5.12 0 6.4 0.427 1.707 0.853 5.12 2.56 6.4 6.827l18.773 56.32c0.853 2.987-0.853 9.387-2.56 11.093l-96.853 97.28c-12.8 11.947-22.187 34.133-22.187 52.907v121.6c0 19.2 8.107 35.84 22.613 45.653s33.28 11.093 51.2 3.413l209.92-90.453c6.4-2.56 10.667-2.56 11.947-1.707s2.987 4.693 2.987 11.52v55.040c0 16.213-13.653 37.12-28.16 43.093l-238.080 102.828c-18.773 8.107-32 28.587-32 49.067v128c0 28.16-22.187 64.427-47.787 77.227-3.413 1.707-7.68 1.707-11.52 0-24.747-12.8-47.36-49.92-47.36-77.653v-128c0-20.053-13.227-40.96-32-49.067l-238.079-102.828c-14.933-5.973-28.587-26.88-28.587-42.667v-55.040c0-6.827 1.707-10.667 2.987-11.52s5.547-0.853 11.947 1.707l209.493 90.453c7.68 3.413 15.787 5.12 23.467 5.12z" />
<glyph unicode="&#xe91c;" glyph-name="airplane-square" d="M690.773 874.667h-357.547c-155.307 0-247.893-92.587-247.893-247.893v-357.12c0-155.733 92.587-248.32 247.893-248.32h357.12c155.307 0 247.893 92.587 247.893 247.893v357.547c0.427 155.307-92.16 247.893-247.467 247.893zM789.76 397.227c0-25.6-19.627-38.4-43.093-28.16l-142.933 61.44c-16.64 6.827-29.867-1.707-29.867-19.627v-78.933c0-6.827 3.84-16.64 8.96-21.76l69.973-70.4c7.253-7.253 10.667-21.76 7.253-31.573l-13.653-40.96c-5.973-17.92-26.453-26.453-43.093-17.92l-71.253 60.587c-11.093 8.96-29.013 8.96-39.68 0l-71.68-60.587c-17.067-8.533-37.12 0-43.093 18.347l-13.653 40.96c-3.413 9.813 0 24.32 7.253 31.573l71.253 69.973c4.693 4.693 8.96 14.507 8.96 21.76v78.933c0 17.92-13.653 26.88-29.867 19.627l-142.933-61.44c-23.893-10.24-43.093 2.56-43.093 28.16v39.68c0 20.48 15.787 44.373 34.56 52.48l168.107 72.533c6.827 2.987 12.8 11.947 12.8 19.627v88.32c0 29.013 20.907 63.573 46.933 76.373 9.387 4.693 20.053 4.693 29.44 0 25.6-13.227 46.933-47.36 46.933-76.373v-88.32c0-7.68 5.547-16.64 12.8-19.627l168.107-72.533c19.2-8.107 34.56-32 34.56-52.48v-39.68z" />
<glyph unicode="&#xe91d;" glyph-name="airplane-square-copy" d="M616.939 113.916c-9.813 0-19.627 2.133-28.587 6.827-2.133 1.28-4.267 2.56-5.973 4.267l-71.253 60.587-69.973-60.587c-2.133-1.707-4.267-2.987-6.4-4.267-16.639-8.107-35.412-8.96-52.052-1.707-17.067 7.253-29.867 21.333-35.84 38.827l-13.653 40.96c-7.253 21.333-0.853 48.213 14.933 64.427l71.253 69.973-0.427 61.867-128.427-55.040c-21.333-8.96-43.52-8.107-60.587 3.413-16.64 10.667-26.453 30.72-26.453 53.76v39.68c0 33.28 23.040 68.693 53.76 81.92l161.707 69.546v81.493c0 41.813 27.732 87.040 64.852 104.96 18.347 8.96 39.253 8.96 57.6 0 37.12-19.2 64.853-64.427 64.853-104.96v-81.493l161.707-69.546c30.72-12.8 53.76-48.213 53.76-81.92v-39.68c0-23.040-9.813-43.093-27.307-54.187s-39.253-12.373-60.587-3.413l-128 55.040v-62.72l69.547-69.547c15.787-15.787 22.187-43.093 14.933-64.427l-13.653-40.533c-5.973-17.493-18.773-31.573-35.84-38.4-7.68-3.413-15.787-5.12-23.893-5.12zM511.979 248.742c14.507 0 28.587-4.693 40.107-13.653l66.133-56.32 11.52 39.68-69.547 69.12c-11.093 10.667-18.347 28.587-18.347 44.373v78.933c0 19.2 8.107 35.84 22.613 45.653s33.28 11.093 51.2 3.413l141.653-60.587 0.427 37.547c0 8.107-7.68 20.053-14.933 23.040l-168.533 72.533c-18.347 7.679-32 28.159-32 49.066v88.32c0 16.64-14.507 40.107-29.44 47.787-15.36-7.68-29.867-30.72-29.867-47.787v-88.32c0-20.053-13.227-40.96-32-49.066l-168.105-72.533c-7.253-2.987-15.36-15.36-15.36-23.040v-37.547l141.227 60.16c17.493 7.68 35.839 6.827 50.772-2.987s23.467-26.453 23.467-46.080v-78.933c0-15.36-7.253-33.28-18.347-44.373l-71.679-70.4 13.653-37.547 64.425 54.613c11.947 9.813 26.453 14.933 40.96 14.933zM599.445 591.355l0.427-0.427c0 0.427-0.427 0.427-0.427 0.427zM640-10.667h-256c-231.68 0-330.667 98.987-330.667 330.667v256c0 231.68 98.987 330.667 330.667 330.667h256c231.68 0 330.667-98.987 330.667-330.667v-256c0-231.68-98.987-330.667-330.667-330.667zM384 842.667c-196.693 0-266.667-69.973-266.667-266.667v-256c0-196.693 69.973-266.667 266.667-266.667h256c196.693 0 266.667 69.973 266.667 266.667v256c0 196.693-69.973 266.667-266.667 266.667h-256z" />
<glyph unicode="&#xe91e;" glyph-name="airpod" d="M643.413 476.079h-262.827c-27.307 0-54.187 11.093-73.387 30.72-5.973 5.973-11.093 12.373-15.36 19.627-7.68 12.801-21.333 20.908-36.267 20.908h-106.24c-23.467 0-42.667-19.201-42.667-42.668v-291.413c0-106.24 85.76-192 192-192h426.667c106.24 0 192 85.76 192 192v291.413c0 23.467-19.2 42.668-42.667 42.668h-106.667c-15.36 0-29.013-8.533-36.693-21.761-17.92-29.44-50.773-49.493-87.893-49.493zM725.333 874.667h-426.667c-106.24 0-192-85.76-192-192v-28.587c0-23.467 19.2-42.667 42.667-42.667h106.667c15.36 0 29.013 8.533 36.693 21.76 17.92 29.44 50.773 49.493 87.893 49.493h255.573c26.027 0 63.573-13.653 81.493-32 5.547-5.547 9.813-11.52 14.080-17.92 7.68-12.8 21.333-21.333 36.693-21.333h106.667c23.467 0 42.667 19.2 42.667 42.667v28.587c-0.427 106.24-86.187 192-192.427 192z" />
<glyph unicode="&#xe91f;" glyph-name="airpod-copy" d="M645.116-10.667h-266.241c-171.947 0-274.773 33.707-293.547 206.507-3.413 24.747-5.12 54.187-5.12 92.16v320c0 36.693 1.707 66.987 5.12 92.587 19.627 173.227 118.187 206.080 293.973 206.080h266.668c175.787 0 274.773-32.853 293.547-206.933 4.267-28.587 5.12-61.013 5.12-91.733v-320c0-37.12-1.707-66.56-5.12-93.013-19.627-172.8-118.613-205.653-294.4-205.653zM378.875 842.667c-181.333 0-218.027-39.253-230.4-149.76-3.413-23.467-4.693-51.2-4.693-84.907v-320c0-34.987 1.707-61.44 4.693-84.053 12.373-111.36 48.64-150.613 230.4-150.613h266.241c181.333 0 218.027 39.253 230.4 149.333 2.987 23.467 4.693 51.2 4.693 85.333v320c0 28.16-0.427 58.027-4.267 83.627-12.373 111.787-48.64 151.040-230.4 151.040h-266.668zM905.809 547.417h-174.933c-17.493 0-32 14.507-32 32s14.507 32 32 32h174.933c17.493 0 32-14.507 32-32s-14.507-32-32-32zM293.1 547.417h-174.933c-17.493 0-32 14.507-32 32s14.507 32 32 32h174.933c17.493 0 32-14.507 32-32s-14.507-32-32-32zM643.418 459.942h-262.826c-32 0-62.72 12.8-84.907 35.84-22.187 21.333-34.56 51.626-34.56 83.626 0 65.707 53.76 119.467 119.467 119.467h262.399c32 0 62.72-13.227 84.907-35.84 22.187-21.76 34.987-51.627 34.987-83.627 0-65.706-53.76-119.466-119.467-119.466zM380.592 634.875c-30.72 0-55.467-24.747-55.467-55.467 0-14.933 5.547-28.587 15.787-38.4 10.667-11.092 24.747-17.066 39.68-17.066h262.826c30.72 0 55.467 24.746 55.467 55.466 0 14.507-5.973 28.16-16.213 38.4-10.667 11.093-24.747 17.067-39.68 17.067h-262.399z" />
<glyph unicode="&#xe920;" glyph-name="airpods" d="M327.253 874.667h-80.64c-44.373 0-84.48-17.92-113.92-47.36s-47.36-69.547-47.36-113.92c0-88.747 72.533-161.28 161.28-161.28h40.107v-322.133c0-31.147 17.92-58.027 43.947-71.253 10.667-5.973 23.467-9.387 36.693-9.387 9.387 0 18.773 1.707 27.307 5.12 31.147 11.093 53.333 40.533 53.333 75.52v523.947c0 66.133-54.613 120.747-120.747 120.747zM246.613 705.28c17.493 0 32-14.507 32-32s-14.507-32-32-32c-39.68 0-72.107 32.427-72.107 72.533s32.427 72.107 72.107 72.107c17.493 0 32-14.507 32-32s-14.507-32-32-32c-4.693 0-8.107-3.84-8.107-8.107s3.413-8.533 8.107-8.533zM891.307 827.307c-29.44 29.44-69.547 47.36-113.92 47.36h-80.64c-66.56 0-120.747-54.613-120.747-120.747v-523.947c0-34.987 22.187-64.427 53.333-75.52 8.533-3.413 17.92-5.12 27.307-5.12 13.227 0 26.027 3.413 36.693 9.387 26.027 13.227 43.947 40.107 43.947 71.253v322.133h40.107c88.747 0 161.28 72.533 161.28 161.28 0 44.373-17.92 84.48-47.36 113.92zM777.387 641.28c-17.493 0-32 14.507-32 32s14.507 32 32 32c4.693 0 8.107 3.84 8.107 8.533s-3.84 8.107-8.107 8.107c-17.493 0-32 14.507-32 32s14.507 32 32 32c39.68 0 72.107-32.427 72.107-72.107s-32-72.533-72.107-72.533zM394.667 154.402v-133.12c0-17.493-14.507-32-32-32s-32 14.507-32 32v137.387c10.667-5.978 23.467-9.387 36.693-9.387 9.387 0 18.773 1.707 27.307 5.12zM693.333 158.669v-137.387c0-17.493-14.507-32-32-32s-32 14.507-32 32v133.12c8.533-3.413 17.92-5.12 27.307-5.12 13.227 0 26.027 3.409 36.693 9.387z" />
<glyph unicode="&#xe921;" glyph-name="airpods-copy" d="M367.37 117.333c-62.293 0-112.639 50.347-112.639 112.64v290.56h-8.534c-106.667 0-193.28 86.612-193.28 193.279s86.613 193.281 193.28 193.281h80.641c84.48 0 152.745-68.694 152.745-152.748v-523.946c0.427-62.72-49.92-113.067-112.212-113.067zM246.624 842.667c-71.253 0-129.28-58.028-129.28-129.281s58.027-129.279 129.28-129.279h40.534c17.493 0 32-14.507 32-32v-322.56c0-26.88 21.759-48.64 48.639-48.64s48.64 21.76 48.64 48.64v523.945c0 49.067-39.68 88.748-88.747 88.748h-81.067v0.427zM246.607 641.279c-39.68 0-72.107 32.425-72.107 72.531s32.427 72.107 72.107 72.107c17.493 0 32-14.507 32-32s-14.507-32-32-32c-4.693 0-8.107-3.84-8.107-8.107s3.84-8.531 8.107-8.531c17.493 0 32-14.507 32-32s-14.507-32-32-32zM656.64 117.333c-62.293 0-112.64 50.347-112.64 112.64v523.946c0 84.48 68.693 152.748 152.747 152.748h80.64c106.667 0 193.28-86.615 193.28-193.281s-86.613-193.279-193.28-193.279h-8.533v-290.56c0.427-61.867-50.347-112.213-112.213-112.213zM696.747 842.667c-49.067 0-88.747-39.681-88.747-88.748v-523.946c0-26.88 21.76-48.64 48.64-48.64s48.64 21.76 48.64 48.64v322.56c0 17.493 14.507 32 32 32h40.533c71.253 0 129.28 58.025 129.28 129.279s-58.027 129.281-129.28 129.281h-81.067v-0.427zM777.374 641.279c-17.493 0-32 14.507-32 32s14.507 32 32 32c4.693 0 8.107 3.838 8.107 8.531s-3.84 8.107-8.107 8.107c-17.493 0-32 14.507-32 32s14.507 32 32 32c39.68 0 72.107-32.427 72.107-72.107s-32-72.531-72.107-72.531zM362.667-10.667c-17.493 0-32 14.507-32 32v128c0 17.493 14.507 32 32 32s32-14.507 32-32v-128c0-17.493-14.507-32-32-32zM661.333-10.667c-17.493 0-32 14.507-32 32v128c0 17.493 14.507 32 32 32s32-14.507 32-32v-128c0-17.493-14.507-32-32-32z" />
<glyph unicode="&#xe922;" glyph-name="alarm" d="M938.667 53.333h-42.667v266.667c0 212.053-171.947 384-384 384s-384-171.947-384-384v-266.667h-42.667c-17.493 0-32-14.507-32-32s14.507-32 32-32h853.333c17.493 0 32 14.507 32 32s-14.507 32-32 32zM512 800c-17.493 0-32 14.507-32 32v42.667c0 17.493 14.507 32 32 32s32-14.507 32-32v-42.667c0-17.493-14.507-32-32-32zM213.393 714.607c-8.107 0-16.213 2.987-22.613 9.387l-42.667 42.667c-12.373 12.373-12.373 32.853 0 45.227s32.853 12.373 45.227 0l42.667-42.667c12.373-12.373 12.373-32.853 0-45.227-6.4-6.4-14.507-9.387-22.613-9.387zM810.726 714.607c-8.107 0-16.213 2.987-22.613 9.387-12.373 12.373-12.373 32.853 0 45.227l42.667 42.667c12.373 12.373 32.853 12.373 45.227 0s12.373-32.853 0-45.227l-42.667-42.667c-6.4-6.4-14.507-9.387-22.613-9.387z" />
<glyph unicode="&#xe923;" glyph-name="alarm-copy" d="M938.667-10.667h-853.333c-17.493 0-32 14.507-32 32s14.507 32 32 32h853.333c17.493 0 32-14.507 32-32s-14.507-32-32-32zM896-10.667h-768c-17.493 0-32 14.507-32 32v298.667c0 229.547 186.453 416 416 416s416-186.453 416-416v-298.667c0-17.493-14.507-32-32-32zM160 53.333h704v266.667c0 194.133-157.867 352-352 352s-352-157.867-352-352v-266.667zM512 800c-17.493 0-32 14.507-32 32v42.667c0 17.493 14.507 32 32 32s32-14.507 32-32v-42.667c0-17.493-14.507-32-32-32zM213.31 714.669c-8.107 0-16.213 2.987-22.613 9.387l-42.667 42.667c-12.373 12.373-12.373 32.853 0 45.227s32.853 12.373 45.227 0l42.667-42.667c12.373-12.373 12.373-32.853 0-45.227-6.4-6.4-14.507-9.387-22.613-9.387zM810.645 714.669c-8.107 0-16.213 2.987-22.613 9.387-12.373 12.373-12.373 32.853 0 45.227l42.667 42.667c12.373 12.373 32.853 12.373 45.227 0s12.373-32.853 0-45.227l-42.667-42.667c-6.4-6.4-14.507-9.387-22.613-9.387z" />
<glyph unicode="&#xe924;" glyph-name="align-bottom" d="M681.813 133.167h44.373c67.84 0 95.147 25.6 95.147 90.453v506.88h-234.667v-506.88c0.427-64.853 27.733-90.453 95.147-90.453zM319.147 346.5h44.373c67.84 0 95.147 26.027 95.147 90.453v293.546h-234.667v-293.546c0.427-64.427 27.733-90.453 95.147-90.453zM906.667 698.927h-789.333c-17.493 0-32 14.080-32 31.573s14.507 32 32 32h789.333c17.493 0 32-14.507 32-32s-14.507-31.573-32-31.573z" />
<glyph unicode="&#xe925;" glyph-name="align-bottom-copy" d="M726.605 117.329h-44.373c-85.76 0-127.147 39.68-127.147 121.6v503.467c0 17.493 14.507 32 32 32s32-14.507 32-32v-503.467c0-43.093 8.96-57.6 63.147-57.6h44.373c54.187 0 63.147 14.507 63.147 57.6v503.467c0 17.493 14.507 32 32 32s32-14.507 32-32v-503.467c0-81.92-41.387-121.6-127.147-121.6zM363.937 330.662h-44.373c-85.76 0-127.147 39.68-127.147 121.6v290.133c0 17.493 14.507 32 32 32s32-14.507 32-32v-290.133c0-43.093 8.96-57.6 63.147-57.6h44.373c54.187 0 63.148 14.507 63.148 57.6v290.133c0 17.493 14.507 32 32 32s32-14.507 32-32v-290.133c0-81.92-41.387-121.6-127.148-121.6zM938.667 714.667h-853.333c-17.92 0-32 14.507-32 32s14.080 32 32 32h853.333c17.493 0 32-14.507 32-32s-14.080-32-32-32z" />
<glyph unicode="&#xe926;" glyph-name="align-horizontally" d="M202.667 217.6v460.8c0 64 27.307 89.6 95.147 89.6h44.373c67.84 0 95.147-25.6 95.147-89.6v-460.8c0-64-27.307-89.6-95.147-89.6h-44.373c-67.84 0-95.147 25.6-95.147 89.6zM202.667 416h-85.333c-17.493 0-32 14.507-32 32s14.507 32 32 32h85.333v-64zM565.333 480h-128v-64h128v64zM906.667 416h-106.667v64h106.667c17.493 0 32-14.507 32-32s-14.507-32-32-32zM565.333 302.933v290.133c0 64 27.307 89.6 95.147 89.6h44.373c67.84 0 95.147-25.6 95.147-89.6v-290.133c0-64-27.307-89.6-95.147-89.6h-44.373c-67.84 0-95.147 25.6-95.147 89.6z" />
<glyph unicode="&#xe927;" glyph-name="align-horizontally-copy" d="M342.187 96h-44.373c-85.76 0-127.147 39.68-127.147 121.6v460.8c0 81.92 41.813 121.6 127.147 121.6h44.373c85.333 0 127.147-39.68 127.147-121.6v-460.8c0-81.92-41.813-121.6-127.147-121.6zM297.813 736c-54.187 0-63.147-14.507-63.147-57.6v-460.8c0-43.093 8.96-57.6 63.147-57.6h44.373c54.187 0 63.147 14.507 63.147 57.6v460.8c0 43.093-8.96 57.6-63.147 57.6h-44.373zM704.853 181.333h-44.373c-85.76 0-127.147 39.68-127.147 121.6v290.133c0 81.92 41.813 121.6 127.147 121.6h44.373c85.76 0 127.147-39.68 127.147-121.6v-290.133c0-81.92-41.813-121.6-127.147-121.6zM660.48 650.667c-54.187 0-63.147-14.507-63.147-57.6v-290.133c0-43.093 8.96-57.6 63.147-57.6h44.373c54.187 0 63.147 14.507 63.147 57.6v290.133c0 43.093-8.96 57.6-63.147 57.6h-44.373zM187.733 416h-102.4c-17.493 0-32 14.507-32 32s14.080 32 32 32h102.4c17.493 0 32-14.507 32-32s-14.080-32-32-32zM554.667 416h-85.333c-17.493 0-32 14.507-32 32s14.507 32 32 32h85.333c17.493 0 32-14.507 32-32s-14.507-32-32-32zM938.701 416h-115.2c-17.493 0-32 14.507-32 32s14.507 32 32 32h115.2c17.493 0 32-14.507 32-32s-14.080-32-32-32z" />
<glyph unicode="&#xe928;" glyph-name="align-left" d="M826.918 278.187v-44.373c0-67.84-25.6-95.147-90.453-95.147h-506.882v234.667h506.882c64.853 0 90.453-27.307 90.453-95.147zM613.585 640.853v-44.373c0-67.84-26.027-95.147-90.453-95.147h-293.548v234.667h293.548c64.427 0 90.453-27.307 90.453-95.147zM229.509 21.333c-17.493 0-32 14.507-32 32v789.333c-0.427 17.92 14.080 32 32 32s32-14.507 32-32v-789.333c-0.427-17.493-14.507-32-32-32z" />
<glyph unicode="&#xe929;" glyph-name="align-left-copy" d="M721.050 106.667h-503.466c-17.493 0-32 14.507-32 32s14.507 32 32 32h503.466c43.093 0 57.6 8.96 57.6 63.147v44.373c0 54.187-14.507 63.147-57.6 63.147h-503.466c-17.493 0-32 14.507-32 32s14.507 32 32 32h503.466c81.92 0 121.6-41.813 121.6-127.147v-44.373c0-85.333-39.68-127.147-121.6-127.147zM507.716 469.333h-290.133c-17.493 0-32 14.507-32 32s14.507 32 32 32h290.133c43.093 0 57.6 8.96 57.6 63.147v44.373c0 54.187-14.507 63.147-57.6 63.147h-290.133c-17.493 0-32 14.507-32 32s14.507 32 32 32h290.133c81.92 0 121.6-41.813 121.6-127.147v-44.373c0-85.333-39.68-127.147-121.6-127.147zM213.333-10.249c-17.493 0-32 14.507-32 32v853.332c0 17.493 14.507 32 32 32s32-14.507 32-32v-853.332c0-17.493-14.507-32-32-32z" />
<glyph unicode="&#xe92a;" glyph-name="align-right" d="M197.083 278.187v-44.373c0-67.84 25.6-95.147 90.453-95.147h506.878v234.667h-506.878c-64.853 0-90.453-27.307-90.453-95.147zM410.417 640.853v-44.373c0-67.84 26.025-95.147 90.452-95.147h293.547v234.667h-293.547c-64.427 0-90.452-27.307-90.452-95.147zM794.415 21.333c-17.493 0-32 14.507-32 32v789.333c0 17.493 14.507 32 32 32s32-14.507 32-32v-789.333c0.427-17.493-14.080-32-32-32z" />
<glyph unicode="&#xe92b;" glyph-name="align-right-copy" d="M806.4 106.667h-503.467c-81.92 0-121.6 41.813-121.6 127.147v44.373c0 85.333 39.68 127.147 121.6 127.147h503.467c17.493 0 32-14.507 32-32s-14.507-32-32-32h-503.467c-43.093 0-57.6-8.96-57.6-63.147v-44.373c0-54.187 14.507-63.147 57.6-63.147h503.467c17.493 0 32-14.507 32-32s-14.507-32-32-32zM806.4 469.333h-290.133c-81.92 0-121.6 41.813-121.6 127.147v44.373c0 85.76 39.68 127.147 121.6 127.147h290.133c17.493 0 32-14.507 32-32s-14.507-32-32-32h-290.133c-43.093 0-57.6-8.96-57.6-63.147v-44.373c0-54.187 14.507-63.147 57.6-63.147h290.133c17.493 0 32-14.507 32-32s-14.507-32-32-32zM810.667-10.249c-17.493 0-32 14.507-32 32v853.332c0 17.493 14.507 32 32 32s32-14.507 32-32v-853.332c0-17.493-14.507-32-32-32z" />
<glyph unicode="&#xe92c;" glyph-name="align-vertically" d="M742.4 138.667h-460.8c-64 0-89.6 27.307-89.6 95.147v44.373c0 67.84 25.6 95.147 89.6 95.147h460.8c64 0 89.6-27.307 89.6-95.147v-44.373c0-67.84-25.6-95.147-89.6-95.147zM544 138.667v-85.333c0-17.493-14.507-32-32-32s-32 14.507-32 32v85.333h64zM544 501.333h-64v-128h64v128zM544 842.667v-106.667h-64v106.667c0 17.493 14.507 32 32 32s32-14.507 32-32zM657.067 501.333h-290.133c-64 0-89.6 27.307-89.6 95.147v44.373c0 67.84 25.6 95.147 89.6 95.147h290.133c64 0 89.6-27.307 89.6-95.147v-44.373c0-67.84-25.6-95.147-89.6-95.147z" />
<glyph unicode="&#xe92d;" glyph-name="align-vertically-copy" d="M742.4 106.667h-460.8c-81.92 0-121.6 41.813-121.6 127.147v44.373c0 85.333 39.68 127.147 121.6 127.147h460.8c81.92 0 121.6-41.813 121.6-127.147v-44.373c0-85.333-39.68-127.147-121.6-127.147zM281.6 341.333c-43.093 0-57.6-8.96-57.6-63.147v-44.373c0-54.187 14.507-63.147 57.6-63.147h460.8c43.093 0 57.6 8.96 57.6 63.147v44.373c0 54.187-14.507 63.147-57.6 63.147h-460.8zM657.067 469.333h-290.133c-81.92 0-121.6 41.813-121.6 127.147v44.373c0 85.76 39.68 127.147 121.6 127.147h290.133c81.92 0 121.6-41.813 121.6-127.147v-44.373c0-85.333-39.68-127.147-121.6-127.147zM366.933 704c-43.093 0-57.6-8.96-57.6-63.147v-44.373c0-54.187 14.507-63.147 57.6-63.147h290.133c43.093 0 57.6 8.96 57.6 63.147v44.373c0 54.187-14.507 63.147-57.6 63.147h-290.133zM512-10.671c-17.493 0-32 14.507-32 32v102.4c0 17.493 14.507 32 32 32s32-14.507 32-32v-102.4c0-17.493-14.507-32-32-32zM512 373.333c-17.493 0-32 14.507-32 32v85.333c0 17.493 14.507 32 32 32s32-14.507 32-32v-85.333c0-17.493-14.507-32-32-32zM512 727.893c-17.493 0-32 14.507-32 32v114.773c0 17.493 14.507 32 32 32s32-14.080 32-32v-114.773c0-17.92-14.507-32-32-32z" />
<glyph unicode="&#xe92e;" glyph-name="android" d="M469.333 192v-128c0-23.467-19.2-42.667-42.667-42.667s-42.667 19.2-42.667 42.667v128h85.333zM640 192v-128c0-23.467-19.2-42.667-42.667-42.667s-42.667 19.2-42.667 42.667v128h85.333zM725.333 490.667v-213.333c0-46.933-38.4-85.333-85.333-85.333h-256c-46.933 0-85.333 38.4-85.333 85.333v213.333c0 46.933 38.4 85.333 85.333 85.333h256c46.933 0 85.333-38.4 85.333-85.333zM213.333 490.667v-170.667c0-23.467-19.2-42.667-42.667-42.667s-42.667 19.2-42.667 42.667v170.667c0 23.467 19.2 42.667 42.667 42.667s42.667-19.2 42.667-42.667zM896 490.667v-170.667c0-23.467-19.2-42.667-42.667-42.667s-42.667 19.2-42.667 42.667v170.667c0 23.467 19.2 42.667 42.667 42.667s42.667-19.2 42.667-42.667zM409.599 635.733h204.801c37.547 0 68.267 30.72 68.267 68.267 0 94.293-76.373 170.667-170.667 170.667s-170.667-76.373-170.667-170.667c0-37.547 30.719-68.267 68.266-68.267z" />
<glyph unicode="&#xe92f;" glyph-name="android-copy" d="M426.667-10.667c-40.96 0-74.667 33.707-74.667 74.667v128c0 17.493 14.507 32 32 32h85.333c17.493 0 32-14.507 32-32v-128c0-40.96-33.707-74.667-74.667-74.667zM416 160v-96c0-11.52 21.333-11.52 21.333 0v96h-21.333zM597.333-10.667c-40.96 0-74.667 33.707-74.667 74.667v128c0 17.493 14.507 32 32 32h85.333c17.493 0 32-14.507 32-32v-128c0-40.96-33.707-74.667-74.667-74.667zM586.667 160v-96c0-11.52 21.333-11.52 21.333 0v96h-21.333zM640 160h-256c-64.853 0-117.333 52.48-117.333 117.333v213.333c0 64.853 52.48 117.333 117.333 117.333h256c64.853 0 117.333-52.48 117.333-117.333v-213.333c0-64.853-52.48-117.333-117.333-117.333zM384 544c-29.44 0-53.333-23.893-53.333-53.333v-213.333c0-29.44 23.893-53.333 53.333-53.333h256c29.44 0 53.333 23.893 53.333 53.333v213.333c0 29.44-23.893 53.333-53.333 53.333h-256zM170.667 245.333c-40.96 0-74.667 33.707-74.667 74.667v170.667c0 40.96 33.707 74.667 74.667 74.667s74.667-33.707 74.667-74.667v-170.667c0-40.96-33.707-74.667-74.667-74.667zM170.667 501.333c-5.973 0-10.667-4.693-10.667-10.667v-170.667c0-11.947 21.333-11.947 21.333 0v170.667c0 5.973-4.693 10.667-10.667 10.667zM853.333 245.333c-40.96 0-74.667 33.707-74.667 74.667v170.667c0 40.96 33.707 74.667 74.667 74.667s74.667-33.707 74.667-74.667v-170.667c0-40.96-33.707-74.667-74.667-74.667zM853.333 501.333c-5.973 0-10.667-4.693-10.667-10.667v-170.667c0-11.947 21.333-11.947 21.333 0v170.667c0 5.973-4.693 10.667-10.667 10.667zM554.667 160h-85.333c-17.493 0-32 14.507-32 32s14.507 32 32 32h85.333c17.493 0 32-14.507 32-32s-14.507-32-32-32zM614.4 629.337h-204.801c-55.467 0-100.266 44.8-100.266 100.267 0 111.787 90.88 202.667 202.667 202.667s202.667-90.88 202.667-202.667c0-55.467-44.8-100.267-100.267-100.267zM512 868.271c-76.373 0-138.667-62.293-138.667-138.667 0-20.053 16.212-36.267 36.266-36.267h204.801c20.053 0 36.267 16.214 36.267 36.267 0 76.373-62.293 138.667-138.667 138.667z" />
<glyph unicode="&#xe930;" glyph-name="ankr-ankr" d="M891.281 510.707c-17.493 0-32 14.507-32 31.999v122.453l-347.307 173.654-347.308-173.654v-122.453c0-17.492-14.507-31.999-32-31.999s-32 14.507-32 31.999v142.080c0 11.947 6.828 23.040 17.922 28.587l379.306 189.44c8.96 4.693 19.627 4.693 28.587 0l379.307-189.44c10.667-5.547 17.92-16.64 17.92-28.587v-142.080c-0.427-17.492-14.933-31.999-32.427-31.999zM511.974-10.688c-5.12 0-9.813 1.28-14.080 3.413l-379.306 189.44c-10.667 5.547-17.922 16.64-17.922 28.587v142.080c0 17.493 14.507 32 32 32s32-14.507 32-32v-122.453l347.308-173.653 347.307 173.653v122.453c0 17.493 14.507 32 32 32s32-14.507 32-32v-142.080c0-11.947-6.827-23.040-17.92-28.587l-379.307-189.44c-4.267-2.133-8.96-3.413-14.080-3.413zM701.466 448.060c0 104.533-84.911 189.44-189.444 189.44-104.531 0-189.438-84.907-189.438-189.44 0-93.867 68.694-171.52 158.295-186.453 0-1.28-0.427-2.133-0.427-2.987v-237.227c0-17.493 14.507-32 32-32s32 14.507 32 32v237.227c0 1.28-0.431 2.133-0.431 2.987 89.173 14.933 157.444 92.587 157.444 186.453z" />
<glyph unicode="&#xe931;" glyph-name="ankr-ankr-copy" d="M891.324 510.729c-17.493 0-32 14.507-32 31.999v122.453l-347.307 173.654-347.309-173.654v-122.453c0-17.492-14.507-31.999-32-31.999s-32 14.507-32 31.999v142.080c0 11.947 6.829 23.040 17.922 28.586l379.302 189.44c8.96 4.693 19.631 4.693 28.591 0l379.302-189.44c10.667-5.547 17.924-16.64 17.924-28.586v-142.080c-0.427-17.492-14.933-31.999-32.427-31.999zM512.017-10.667c-5.12 0-9.818 1.28-14.084 3.413l-379.302 189.44c-10.667 5.547-17.922 16.64-17.922 28.587v142.080c0 17.493 14.507 32 32 32s32-14.507 32-32v-122.453l347.309-173.653 347.307 173.653v122.453c0 17.493 14.507 32 32 32s32-14.507 32-32v-142.080c0-11.947-6.831-23.040-17.924-28.587l-379.302-189.44c-4.267-2.133-8.96-3.413-14.080-3.413zM512-10.662c-17.493 0-32 14.507-32 32v237.227c0 17.493 14.507 32 32 32s32-14.507 32-32v-237.227c0-17.493-14.507-32-32-32zM511.983 226.556c-122.028 0-221.441 99.413-221.441 221.44s99.413 221.442 221.441 221.442c122.027 0 221.44-99.413 221.44-221.442 0-122.027-99.413-221.44-221.44-221.44zM511.983 605.437c-87.041 0-157.441-70.827-157.441-157.442 0-86.613 70.827-157.44 157.441-157.44 86.613 0 157.44 70.827 157.44 157.44 0 86.615-70.4 157.442-157.44 157.442z" />
<glyph unicode="&#xe932;" glyph-name="apple" d="M814.938 142.507c25.173 38.4 34.56 58.027 53.76 101.12-141.653 53.76-164.267 255.573-24.32 332.8-42.667 53.76-102.827 84.906-159.573 84.906-40.96 0-69.12-10.667-94.293-20.48-21.333-8.107-40.533-15.36-64.427-15.36-25.6 0-48.213 8.106-72.107 16.64-26.027 9.387-53.335 19.2-87.468 19.2-63.573 0-131.413-38.827-174.506-105.387-60.587-93.867-49.92-269.653 47.787-419.84 34.987-53.76 81.92-113.92 142.933-114.773 25.6-0.427 42.24 7.253 60.588 15.36 20.907 9.387 43.52 19.627 83.2 19.627 39.68 0.427 61.867-10.24 82.773-19.627 17.92-8.107 34.133-15.787 59.307-15.36 61.867 0.853 111.36 67.413 146.347 121.173zM675.857 874.667c6.827-46.933-12.373-93.44-37.547-125.867-26.88-34.987-73.813-62.293-119.040-60.586-8.107 45.227 12.8 91.734 38.4 122.88 28.587 34.133 76.8 60.586 118.187 63.573z" />
<glyph unicode="&#xe933;" glyph-name="apple-copy" d="M393.795-10.671c-0.427 0-0.854 0-1.707 0-71.68 0.427-122.88 64.853-159.147 120.747-92.587 142.080-111.36 320.853-44.373 424.535 44.8 69.547 117.333 112.641 189.013 112.641 37.12 0 66.135-10.241 91.735-19.628 20.48-7.253 37.973-13.652 56.32-13.652 16.213 0 30.293 5.546 48.213 12.372 24.747 9.387 55.040 20.908 98.987 20.908 63.147 0 128-33.707 173.227-90.88 5.973-7.253 8.107-17.067 6.4-26.028-1.707-9.387-7.68-17.067-15.787-21.76-48.213-26.453-74.667-74.667-70.827-129.28 3.84-55.467 37.973-102.4 89.173-121.6 8.107-2.987 14.933-9.387 18.347-17.493s3.413-17.493-0.427-25.173c-18.773-41.813-28.16-61.013-52.48-98.56-40.533-62.293-91.733-126.293-161.707-127.147-30.293 0-50.773 8.96-68.693 17.493-17.92 8.107-35.413 14.507-63.147 15.36-29.867 0-45.653-7.253-64-15.36-18.773-8.533-39.255-17.493-69.121-17.493zM377.581 583.251c-50.347 0-101.973-32-135.253-83.202-45.227-69.973-44.8-218.027 44.373-354.987 27.733-42.667 64.853-91.307 106.24-91.733 15.36 0.427 26.88 4.693 42.668 11.52 20.907 9.387 46.933 20.907 90.027 21.333 42.24 0.853 69.547-11.52 90.453-21.333 15.36-7.253 25.6-11.947 41.387-11.52 40.107 0.427 78.933 52.48 108.8 97.707 15.787 24.32 24.747 39.68 34.56 61.44-57.173 33.707-94.72 93.013-99.413 162.133-4.693 65.28 21.76 126.293 70.4 166.828-29.867 26.453-65.28 41.387-99.413 41.387-32 0-53.333-8.108-75.947-16.641-21.333-8.107-43.52-16.639-71.253-16.639-29.44 0-53.76 8.96-77.653 17.066-22.615 8.96-44.375 16.641-69.975 16.641zM504.303 655.784c-1.28 0-2.987 0-4.267 0-14.933 0.427-27.733 11.52-30.293 26.453-8.96 48.213 8.107 103.681 45.227 148.908 34.133 41.387 90.453 72.106 140.373 75.52 17.493 0.853 31.573-10.668 33.707-27.308 7.253-49.92-8.533-104.533-43.947-150.186-34.56-44.8-89.6-73.387-140.8-73.387zM625.050 834.13c-23.040-9.387-45.653-25.173-60.587-43.52-14.080-17.067-27.307-40.96-31.573-65.707 23.040 7.68 46.080 23.040 61.867 43.52 8.533 10.667 24.747 35.412 30.293 65.706z" />
<glyph unicode="&#xe934;" glyph-name="aquarius" d="M842.667 576c0 182.187-148.48 330.667-330.667 330.667s-330.667-148.48-330.667-330.667c0-17.493 14.507-32 32-32s32 14.507 32 32c0 147.2 119.467 266.667 266.667 266.667s266.667-119.467 266.667-266.667c0-147.2-119.467-266.667-266.667-266.667-17.493 0-32-14.507-32-32v-256c0-17.493 14.507-32 32-32s32 14.507 32 32v225.707c167.253 16.213 298.667 157.44 298.667 328.96zM640 117.333h-256c-17.493 0-32 14.507-32 32s14.507 32 32 32h256c17.493 0 32-14.507 32-32s-14.507-32-32-32z" />
<glyph unicode="&#xe935;" glyph-name="aquarius-copy" d="M512 245.333c-17.493 0-32 14.507-32 32s14.507 32 32 32c147.2 0 266.667 119.467 266.667 266.667s-119.467 266.667-266.667 266.667c-147.2 0-266.667-119.467-266.667-266.667 0-17.493-14.507-32-32-32s-32 14.507-32 32c0 182.187 148.48 330.667 330.667 330.667s330.667-148.48 330.667-330.667c0-182.187-148.48-330.667-330.667-330.667zM512-10.667c-17.493 0-32 14.507-32 32v256c0 17.493 14.507 32 32 32s32-14.507 32-32v-256c0-17.493-14.507-32-32-32zM640 117.333h-256c-17.493 0-32 14.507-32 32s14.507 32 32 32h256c17.493 0 32-14.507 32-32s-14.507-32-32-32z" />
<glyph unicode="&#xe936;" glyph-name="archive" d="M682.667 544h-341.333c-29.44 0-53.333-23.893-53.333-53.333v-44.8c1.28 0.427 2.133 0.853 3.413 1.28 5.12 2.56 10.667 4.267 16.213 5.973 2.56 0.853 5.12 1.707 8.107 2.56 8.533 1.707 17.067 2.987 26.027 2.987h341.333c8.96 0 17.493-1.28 26.027-2.987 2.56-0.427 5.12-1.707 8.107-2.56 5.547-1.707 11.093-3.413 16.213-5.973 1.28-0.427 2.56-0.853 3.413-1.28v44.8c-0.853 29.44-24.747 53.333-54.187 53.333zM682.667 394.667h-341.333c-29.44 0-53.333-23.893-53.333-53.333v-21.333h117.333c17.493 0 32-14.507 32-32 0-40.96 33.707-74.667 74.667-74.667s74.667 33.707 74.667 74.667c0 17.493 14.507 32 32 32h117.333v21.333c0 29.44-23.893 53.333-53.333 53.333zM682.667 682.667h-341.333c-29.44 0-53.333-23.893-53.333-53.333v-34.56c16.213 8.107 34.133 13.227 53.333 13.227h341.333c19.2 0 37.12-5.12 53.333-13.227v34.56c0 29.44-23.893 53.333-53.333 53.333zM690.773 874.667h-357.547c-155.307 0-247.893-92.587-247.893-247.893v-357.12c0-155.733 92.587-248.32 247.893-248.32h357.12c155.307 0 247.893 92.587 247.893 247.893v357.547c0.427 155.307-92.16 247.893-247.467 247.893zM810.667 256h-163.84c-14.507-61.013-69.547-106.667-134.827-106.667s-120.32 45.653-134.827 106.667h-163.84c-17.493 0-32 14.507-32 32s14.507 32 32 32h10.667v309.333c0 64.853 52.48 117.333 117.333 117.333h341.333c64.853 0 117.333-52.48 117.333-117.333v-309.333h10.667c17.493 0 32-14.507 32-32s-14.507-32-32-32z" />
<glyph unicode="&#xe937;" glyph-name="archive-1" d="M717.666 874.667h-411.306c-90.88 0-164.693-74.24-164.693-164.693v-601.173c0-76.8 55.040-109.227 122.453-72.107l208.213 115.627c22.187 12.373 58.027 12.373 79.787 0l208.213-115.627c67.413-37.547 122.453-5.12 122.453 72.107v601.173c-0.427 90.453-74.24 164.693-165.12 164.693zM640.439 544c-41.387-14.933-84.907-22.613-128.427-22.613s-87.040 7.68-128.426 22.613c-16.64 5.973-25.173 24.32-19.2 40.96 6.4 16.64 24.747 25.173 41.387 19.2 68.693-24.747 144.213-24.747 212.906 0 16.64 5.973 34.987-2.56 40.96-19.2s-2.56-34.987-19.2-40.96z" />
<glyph unicode="&#xe938;" glyph-name="archive-1-copy" d="M511.991 521.382c-43.52 0-87.042 7.68-128.428 22.615-16.64 5.973-25.173 24.32-19.2 40.96 6.4 16.64 24.747 25.173 41.387 19.2 68.695-24.747 144.215-24.747 212.908 0 16.64 5.973 34.987-2.56 40.96-19.2s-2.56-34.987-19.2-40.96c-41.387-14.935-84.907-22.615-128.427-22.615zM813.666-10.667c-21.76 0-45.653 6.4-68.693 19.627l-208.213 115.627c-12.373 6.827-36.693 6.827-49.067 0l-208.213-115.627c-42.24-23.467-85.333-26.027-118.187-6.4-32.853 19.2-51.627 58.027-51.627 106.24v601.173c0 108.373 88.32 196.693 196.693 196.693h411.733c108.373 0 196.693-88.32 196.693-196.693v-601.173c0-48.213-18.773-87.040-51.627-106.24-14.933-8.96-32-13.227-49.493-13.227zM512.013 193.707c20.053 0 39.68-4.267 55.467-13.227l208.213-115.627c21.76-12.373 41.813-14.933 54.613-7.253s20.053 26.027 20.053 51.2v601.173c0 72.96-59.733 132.693-132.693 132.693h-411.306c-72.96 0-132.693-59.733-132.693-132.693v-601.173c0-25.173 7.253-43.947 20.053-51.2s32.427-5.12 54.613 7.253l208.213 115.627c15.787 8.96 35.413 13.227 55.467 13.227z" />
<glyph unicode="&#xe939;" glyph-name="archive-2" d="M938.667 746.667v-85.333c0-78.080-35.413-120.32-106.667-126.72-6.827-0.853-14.080-1.28-21.333-1.28h-597.333c-7.253 0-14.507 0.427-21.333 1.28-71.253 6.4-106.667 48.64-106.667 126.72v85.333c0 85.333 42.667 128 128 128h597.333c85.333 0 128-42.667 128-128zM234.667 480c-23.467 0-42.667-19.2-42.667-42.667v-288c0-85.333 21.333-128 128-128h384c106.667 0 128 42.667 128 128v288c0 23.467-19.2 42.667-42.667 42.667h-554.667zM589.653 288h-155.307c-17.493 0-32 14.507-32 32s14.507 32 32 32h155.307c17.493 0 32-14.507 32-32s-14.507-32-32-32z" />
<glyph unicode="&#xe93a;" glyph-name="archive-2-copy" d="M704-10.667h-384c-140.8 0-160 76.8-160 160v374.613c0 17.495 14.507 32.001 32 32.001s32-14.507 32-32.001v-374.613c0-74.24 12.8-96 96-96h384c83.2 0 96 21.76 96 96v374.613c0 17.495 14.507 32.001 32 32.001s32-14.507 32-32.001v-374.613c0-83.2-19.2-160-160-160zM810.667 501.333h-597.333c-103.253 0-160 56.747-160 160v85.333c0 103.253 56.747 160 160 160h597.333c103.253 0 160-56.747 160-160v-85.333c0-103.253-56.747-160-160-160zM213.333 842.667c-67.413 0-96-28.587-96-96v-85.333c0-67.413 28.587-96 96-96h597.333c67.413 0 96 28.587 96 96v85.333c0 67.413-28.587 96-96 96h-597.333zM589.641 330.667h-155.307c-17.494 0-32 14.507-32 32s14.507 32 32 32h155.307c17.493 0 32-14.507 32-32s-14.507-32-32-32z" />
<glyph unicode="&#xe93b;" glyph-name="archive-add" d="M717.666 874.667h-411.306c-90.88 0-164.693-74.24-164.693-164.693v-601.173c0-76.8 55.040-109.227 122.453-72.107l208.213 115.627c22.187 12.373 58.027 12.373 79.787 0l208.213-115.627c67.413-37.547 122.453-5.12 122.453 72.107v601.173c-0.427 90.453-74.24 164.693-165.12 164.693zM618.679 473.6h-74.667v-77.227c0-17.493-14.507-32-32-32s-32 14.507-32 32v77.227h-74.666c-17.493 0-32 14.507-32 32s14.507 32 32 32h74.666v72.107c0 17.493 14.507 32 32 32s32-14.507 32-32v-72.107h74.667c17.493 0 32-14.507 32-32s-14.507-32-32-32z" />
<glyph unicode="&#xe93c;" glyph-name="archive-add-copy" d="M618.667 473.604h-213.333c-17.493 0-32 14.507-32 32s14.507 32 32 32h213.333c17.493 0 32-14.507 32-32s-14.507-32-32-32zM512 364.373c-17.493 0-32 14.507-32 32v213.335c0 17.493 14.507 32 32 32s32-14.507 32-32v-213.335c0-17.493-14.507-32-32-32zM813.666-10.667c-21.76 0-45.653 6.4-68.693 19.627l-208.213 115.627c-12.373 6.827-36.693 6.827-49.067 0l-208.213-115.627c-42.24-23.467-85.333-26.027-118.187-6.4-32.853 19.2-51.627 58.027-51.627 106.24v601.173c0 108.373 88.32 196.693 196.693 196.693h411.733c108.373 0 196.693-88.32 196.693-196.693v-601.173c0-48.213-18.773-87.040-51.627-106.24-14.933-8.96-32-13.227-49.493-13.227zM512.013 193.707c20.053 0 39.68-4.267 55.467-13.227l208.213-115.627c21.76-12.373 41.813-14.933 54.613-7.253s20.053 26.027 20.053 51.2v601.173c0 72.96-59.733 132.693-132.693 132.693h-411.306c-72.96 0-132.693-59.733-132.693-132.693v-601.173c0-25.173 7.253-43.947 20.053-51.2s32.853-5.12 54.613 7.253l208.213 115.627c15.787 8.96 35.413 13.227 55.467 13.227z" />
<glyph unicode="&#xe93d;" glyph-name="archive-book" d="M637.026 853.333v-251.733c0-18.773-22.187-28.16-35.84-15.787l-74.667 68.693c-8.107 7.68-20.907 7.68-29.013 0l-74.666-68.267c-13.653-12.8-35.84-2.987-35.84 15.36v251.733c0 11.947 9.387 21.333 21.333 21.333h207.36c11.947 0 21.333-9.387 21.333-21.333zM724.48 872.153c-12.373 1.707-23.467-8.96-23.467-21.333v-256.853c0-32.427-19.2-61.866-49.067-75.093-29.867-12.8-64.427-7.253-88.32 14.933l-37.12 34.133c-8.107 7.68-20.48 7.68-29.013 0l-37.12-34.133c-15.36-14.506-35.413-21.76-55.467-21.76-11.093 0-22.187 2.133-32.853 6.827-29.867 13.227-49.067 42.666-49.067 75.093v256.853c0 12.373-11.093 23.040-23.467 21.333-119.467-14.933-171.52-95.573-171.52-210.773v-426.666c0-128 64-213.333 213.333-213.333h341.333c149.333 0 213.333 85.333 213.333 213.333v426.666c0 115.2-52.053 195.84-171.52 210.773zM746.667 160.047h-362.667c-17.493 0-32 14.507-32 32s14.507 32 32 32h362.667c17.493 0 32-14.507 32-32s-14.507-32-32-32zM746.667 330.714h-181.333c-17.493 0-32 14.507-32 32s14.507 32 32 32h181.333c17.493 0 32-14.507 32-32s-14.507-32-32-32z" />
<glyph unicode="&#xe93e;" glyph-name="archive-book-copy" d="M682.667-10.667h-341.333c-155.733 0-245.333 89.6-245.333 245.333v426.667c0 155.733 89.6 245.333 245.333 245.333h341.333c155.733 0 245.333-89.6 245.333-245.333v-426.667c0-155.733-89.6-245.333-245.333-245.333zM341.333 842.667c-122.027 0-181.333-59.307-181.333-181.333v-426.667c0-122.027 59.307-181.333 181.333-181.333h341.333c122.027 0 181.333 59.307 181.333 181.333v426.667c0 122.027-59.307 181.333-181.333 181.333h-341.333zM384 485.973c-7.253 0-14.507 1.28-21.333 4.267-19.627 8.533-32 27.733-32 48.64v335.787c0 17.493 14.507 32 32 32h298.667c17.493 0 32-14.507 32-32v-335.36c0-21.334-12.373-40.534-32-48.64-19.2-8.533-41.813-4.693-57.6 9.813l-91.733 84.054-91.734-84.48c-10.24-9.387-23.039-14.080-36.266-14.080zM512 652.372c12.8 0 26.027-4.692 36.267-14.078l81.067-74.667v279.039h-234.667v-279.039l81.067 74.667c10.24 9.387 23.467 14.078 36.267 14.078zM746.667 330.667h-181.333c-17.493 0-32 14.507-32 32s14.507 32 32 32h181.333c17.493 0 32-14.507 32-32s-14.507-32-32-32zM746.667 160h-362.667c-17.493 0-32 14.507-32 32s14.507 32 32 32h362.667c17.493 0 32-14.507 32-32s-14.507-32-32-32z" />
<glyph unicode="&#xe93f;" glyph-name="archive-copy" d="M640-10.667h-256c-231.68 0-330.667 98.987-330.667 330.667v256c0 231.68 98.987 330.667 330.667 330.667h256c231.68 0 330.667-98.987 330.667-330.667v-256c0-231.68-98.987-330.667-330.667-330.667zM384 842.667c-196.693 0-266.667-69.973-266.667-266.667v-256c0-196.693 69.973-266.667 266.667-266.667h256c196.693 0 266.667 69.973 266.667 266.667v256c0 196.693-69.973 266.667-266.667 266.667h-256zM768 309.333c-17.493 0-32 14.507-32 32 0 29.44-23.893 53.333-53.333 53.333h-341.333c-29.44 0-53.333-23.893-53.333-53.333 0-17.493-14.507-32-32-32s-32 14.507-32 32v288c0 64.853 52.48 117.333 117.333 117.333h341.333c64.853 0 117.333-52.48 117.333-117.333v-288c0-17.493-14.507-32-32-32zM341.333 458.667h341.333c19.2 0 37.547-4.693 53.333-12.8v183.467c0 29.44-23.893 53.333-53.333 53.333h-341.333c-29.44 0-53.333-23.893-53.333-53.333v-183.467c15.787 8.107 34.133 12.8 53.333 12.8zM810.667 256h-42.667c-17.493 0-32 14.507-32 32s14.507 32 32 32h42.667c17.493 0 32-14.507 32-32s-14.507-32-32-32zM256 256h-42.667c-17.493 0-32 14.507-32 32s14.507 32 32 32h42.667c17.493 0 32-14.507 32-32s-14.507-32-32-32zM768 330.667c-17.493 0-32 14.507-32 32v128c0 29.44-23.893 53.333-53.333 53.333h-341.333c-29.44 0-53.333-23.893-53.333-53.333v-128c0-17.493-14.507-32-32-32s-32 14.507-32 32v128c0 64.853 52.48 117.333 117.333 117.333h341.333c64.853 0 117.333-52.48 117.333-117.333v-128c0-17.493-14.507-32-32-32zM512 149.333c-65.28 0-120.319 45.653-134.825 106.667h-121.175c-17.493 0-32 14.507-32 32v53.333c0 64.853 52.48 117.333 117.333 117.333h341.333c64.853 0 117.333-52.48 117.333-117.333v-53.333c0-17.493-14.507-32-32-32h-121.173c-14.507-61.013-69.547-106.667-134.827-106.667zM288 320h117.333c17.493 0 32-14.507 32-32 0-40.96 33.707-74.667 74.667-74.667s74.667 33.707 74.667 74.667c0 17.493 14.507 32 32 32h117.333v21.333c0 29.44-23.893 53.333-53.333 53.333h-341.333c-29.44 0-53.333-23.893-53.333-53.333v-21.333z" />
<glyph unicode="&#xe940;" glyph-name="archive-minus" d="M717.666 874.667h-411.306c-90.88 0-164.693-74.24-164.693-164.693v-601.173c0-76.8 55.040-109.227 122.453-72.107l208.213 115.627c22.187 12.373 58.027 12.373 79.787 0l208.213-115.627c67.413-37.547 122.453-5.12 122.453 72.107v601.173c-0.427 90.453-74.24 164.693-165.12 164.693zM618.679 473.6h-213.333c-17.493 0-32 14.507-32 32s14.507 32 32 32h213.333c17.493 0 32-14.507 32-32s-14.507-32-32-32z" />
<glyph unicode="&#xe941;" glyph-name="archive-minus-copy" d="M618.667 473.604h-213.333c-17.493 0-32 14.507-32 32s14.507 32 32 32h213.333c17.493 0 32-14.507 32-32s-14.507-32-32-32zM210.328-10.667c-17.92 0-34.56 4.267-49.493 12.8-32.853 19.2-51.627 58.027-51.627 106.24v601.6c0 108.373 88.32 196.693 196.693 196.693h411.735c108.373 0 196.693-88.32 196.693-196.693v-601.173c0-48.213-18.773-87.040-51.627-106.24s-75.947-17.067-118.187 6.4l-208.213 115.627c-12.373 6.827-36.693 6.827-49.067 0l-208.215-115.627c-23.040-12.8-46.507-19.627-68.693-19.627zM306.328 842.667c-72.96 0-132.693-59.733-132.693-132.693v-601.173c0-25.173 7.253-43.947 20.053-51.2 12.8-7.68 32.853-5.12 54.613 7.253l208.215 115.627c31.573 17.493 79.36 17.493 110.933 0l208.213-115.627c21.76-12.373 41.813-14.933 54.613-7.253s20.053 26.453 20.053 51.2v601.173c0 72.96-59.733 132.693-132.693 132.693h-411.308z" />
<glyph unicode="&#xe942;" glyph-name="archive-slash" d="M858.466 794.453l-713.813-713.813c-2.133 8.533-2.987 17.92-2.987 28.16v601.173c0 90.453 73.813 164.693 164.693 164.693h411.306c59.733 0 112.213-32 140.8-80.213zM928.892 864.9c-12.8 12.8-33.707 12.8-46.507 0l-787.202-787.626c-12.8-12.8-12.8-33.707 0-46.507 6.4-5.973 14.507-9.387 23.040-9.387s16.64 3.413 23.040 9.813l787.628 787.626c13.227 12.8 13.227 33.28 0 46.080zM823.049 631.017l-315.311-315.305c-19.627-19.627-15.787-52.48 8.107-66.56l315.307-189.013c28.587-17.067 64.427 3.413 64.427 36.693v504.318c0.427 37.973-45.653 56.747-72.529 29.867z" />
<glyph unicode="&#xe943;" glyph-name="archive-slash-copy" d="M85.352-10.662c-8.107 0-16.213 2.987-22.613 9.387-12.373 12.373-12.373 32.853 0 45.227l853.332 853.332c12.373 12.373 32.853 12.373 45.227 0s12.373-32.853 0-45.227l-853.332-853.332c-6.4-6.4-14.507-9.387-22.613-9.387zM805.534-10.667c-23.893 0-49.493 7.253-75.093 21.333l-278.187 173.653c-14.933 9.387-19.627 29.013-10.24 43.947s29.013 19.627 43.947 10.24l276.907-172.8c23.893-13.227 47.787-16.213 63.147-7.253s24.32 31.147 24.32 60.587v469.335c0 17.493 14.507 32 32 32s32-14.507 32-32v-469.335c0-52.48-20.48-94.72-55.893-115.627-15.787-9.387-33.707-14.080-52.907-14.080zM141.667 76.8c-17.493 0-32 14.507-32 32v601.173c0 108.373 88.32 196.693 196.693 196.693h411.733c59.307 0 115.2-26.453 152.747-72.96 11.093-13.653 8.96-33.707-4.693-45.227-13.653-11.093-33.707-8.96-44.8 4.693-25.6 31.573-63.147 49.493-103.253 49.493h-411.733c-72.96 0-132.693-59.733-132.693-132.693v-601.173c0-17.493-14.507-32-32-32z" />
<glyph unicode="&#xe944;" glyph-name="archive-tick" d="M717.666 878.5h-411.306c-90.453 0-164.693-74.24-164.693-164.693v-601.175c0-76.8 55.040-109.227 122.453-72.107l208.213 115.627c22.187 12.373 58.027 12.373 79.787 0l208.213-115.627c67.413-37.547 122.453-5.12 122.453 72.107v601.175c-0.427 90.453-74.24 164.693-165.12 164.693zM666.466 574.713l-170.667-170.668c-6.4-6.4-14.507-9.387-22.613-9.387s-16.213 2.987-22.613 9.387l-64 64c-12.373 12.373-12.373 32.853 0 45.227s32.853 12.373 45.226 0l41.387-41.387 148.053 148.055c12.373 12.373 32.853 12.373 45.227 0s12.373-32.853 0-45.227z" />
<glyph unicode="&#xe945;" glyph-name="archive-tick-copy" d="M210.328-10.667c-17.92 0-34.56 4.267-49.493 12.8-32.853 19.2-51.627 58.027-51.627 106.24v601.6c0 108.373 88.32 196.693 196.693 196.693h411.735c108.373 0 196.693-88.32 196.693-196.693v-601.173c0-48.213-18.773-87.040-51.627-106.24s-75.947-17.067-118.187 6.4l-208.213 115.627c-12.373 6.827-36.693 6.827-49.067 0l-208.215-115.627c-23.040-12.8-46.507-19.627-68.693-19.627zM306.328 842.667c-72.96 0-132.693-59.733-132.693-132.693v-601.173c0-25.173 7.253-43.947 20.053-51.2s32.853-5.12 54.613 7.253l208.215 115.627c31.573 17.493 79.36 17.493 110.933 0l208.213-115.627c21.76-12.373 41.813-14.933 54.613-7.253s20.053 26.453 20.053 51.2v601.173c0 72.96-59.733 132.693-132.693 132.693h-411.308zM473.186 394.671c-8.107 0-16.213 2.987-22.613 9.387l-64.001 64c-12.373 12.373-12.373 32.853 0 45.227s32.853 12.373 45.228 0l41.387-41.387 148.053 148.052c12.373 12.373 32.853 12.373 45.227 0s12.373-32.853 0-45.227l-170.667-170.665c-6.4-6.4-14.507-9.387-22.613-9.387z" />
<glyph unicode="&#xe946;" glyph-name="arrange-circle" d="M512 874.667c-235.52 0-426.667-191.147-426.667-426.667s191.147-426.667 426.667-426.667c235.52 0 426.667 191.147 426.667 426.667s-191.147 426.667-426.667 426.667zM466.347 228.267c0-4.267-0.853-8.107-2.56-12.373-3.413-7.68-9.387-14.080-17.493-17.493-3.84-1.707-8.107-2.56-12.373-2.56s-8.107 0.853-12.373 2.56c-3.84 1.707-7.253 3.84-10.24 6.827l-129.707 129.707c-12.373 12.373-12.373 32.853 0 45.227s32.853 12.373 45.227 0l75.093-75.093v362.667c0 17.493 14.507 32 32 32s32-14.507 32-32v-439.467h0.427zM741.973 515.413c-6.4-6.4-14.507-9.387-22.613-9.387s-16.213 2.987-22.613 9.387l-75.093 75.093v-362.667c0-17.493-14.507-32-32-32s-32 14.507-32 32v439.893c0 4.267 0.853 8.107 2.56 12.373 3.413 7.68 9.387 14.080 17.493 17.493 7.68 3.413 16.64 3.413 24.32 0 3.84-1.707 7.253-3.84 10.24-6.827l129.707-129.707c12.373-12.8 12.373-32.853 0-45.653z" />
<glyph unicode="&#xe947;" glyph-name="arrange-circle-2" d="M512 874.667c-235.52 0-426.667-191.147-426.667-426.667s191.147-426.667 426.667-426.667c235.52 0 426.667 191.147 426.667 426.667s-191.147 426.667-426.667 426.667zM761.6 358.4c-1.707-3.84-3.84-7.253-6.827-10.24l-129.707-129.707c-6.4-6.4-14.507-9.387-22.613-9.387s-16.213 2.987-22.613 9.387c-12.373 12.373-12.373 32.853 0 45.227l75.093 75.093h-362.667c-17.493 0-32 14.507-32 32s14.507 32 32 32h439.893c4.267 0 8.107-0.853 12.373-2.56 7.68-3.413 14.080-9.387 17.493-17.493 2.56-7.68 2.56-16.64-0.427-24.32zM731.733 493.653h-439.467c-4.267 0-8.533 0.853-12.373 2.56-7.68 3.413-14.080 9.387-17.493 17.493-3.413 7.68-3.413 16.64 0 24.32 1.707 3.84 3.84 7.253 6.827 10.24l129.707 129.707c12.373 12.373 32.853 12.373 45.227 0s12.373-32.853 0-45.227l-74.667-75.093h362.667c17.493 0 32-14.507 32-32s-14.507-32-32.427-32z" />
<glyph unicode="&#xe948;" glyph-name="arrange-circle-2-copy" d="M602.061 208.64c-8.107 0-16.213 2.987-22.613 9.387-12.373 12.373-12.373 32.853 0 45.227l129.707 129.707c12.373 12.373 32.853 12.373 45.227 0s12.373-32.853 0-45.227l-129.707-129.707c-5.973-5.973-14.080-9.387-22.613-9.387zM731.725 338.342h-439.892c-17.493 0-32 14.507-32 32s14.507 32 32 32h439.892c17.493 0 32-14.507 32-32s-14.080-32-32-32zM292.227 493.649c-8.107 0-16.213 2.987-22.613 9.387-12.373 12.373-12.373 32.854 0 45.227l129.706 129.707c12.373 12.373 32.856 12.373 45.229 0s12.373-32.855 0-45.228l-129.708-129.706c-6.4-6.4-14.507-9.387-22.613-9.387zM731.725 493.658h-439.892c-17.493 0-32 14.507-32 32s14.507 31.999 32 31.999h439.892c17.493 0 32-14.507 32-31.999s-14.080-32-32-32zM512-10.667c-253.013 0-458.667 205.653-458.667 458.667s205.653 458.667 458.667 458.667c253.013 0 458.667-205.653 458.667-458.667s-205.653-458.667-458.667-458.667zM512 842.667c-217.6 0-394.667-177.067-394.667-394.667s177.067-394.667 394.667-394.667c217.6 0 394.667 177.067 394.667 394.667s-177.067 394.667-394.667 394.667z" />
<glyph unicode="&#xe949;" glyph-name="arrange-circle-copy" d="M719.347 506.027c-8.107 0-16.213 2.987-22.613 9.387l-129.702 129.705c-12.373 12.373-12.373 32.853 0 45.227s32.853 12.373 45.227 0l129.707-129.706c12.373-12.373 12.373-32.852 0-45.226-6.4-5.973-14.511-9.387-22.618-9.387zM589.666 196.275c-17.493 0-32 14.507-32 32v439.892c0 17.493 14.507 32 32 32s32-14.507 32-32v-439.892c0-17.92-14.507-32-32-32zM434.351 196.275c-8.107 0-16.214 2.987-22.614 9.387l-129.707 129.707c-12.373 12.373-12.373 32.853 0 45.227s32.855 12.373 45.228 0l129.706-129.707c12.373-12.373 12.373-32.853 0-45.227-5.973-6.4-14.080-9.387-22.613-9.387zM434.334 196.275c-17.494 0-32 14.507-32 32v439.892c0 17.493 14.507 32 32 32s32-14.507 32-32v-439.892c0-17.92-14.080-32-32-32zM512-10.667c-253.013 0-458.667 205.653-458.667 458.667s205.653 458.667 458.667 458.667c253.013 0 458.667-205.653 458.667-458.667s-205.653-458.667-458.667-458.667zM512 842.667c-217.6 0-394.667-177.067-394.667-394.667s177.067-394.667 394.667-394.667c217.6 0 394.667 177.067 394.667 394.667s-177.067 394.667-394.667 394.667z" />
<glyph unicode="&#xe94a;" glyph-name="arrange-square" d="M690.773 874.667h-357.547c-155.307 0-247.893-92.587-247.893-247.893v-357.12c0-155.733 92.587-248.32 247.893-248.32h357.12c155.307 0 247.893 92.587 247.893 247.893v357.547c0.427 155.307-92.16 247.893-247.467 247.893zM761.6 358.4c-1.707-3.84-3.84-7.253-6.827-10.24l-129.707-129.707c-6.4-6.4-14.507-9.387-22.613-9.387s-16.213 2.987-22.613 9.387c-12.373 12.373-12.373 32.853 0 45.227l75.093 75.093h-362.667c-17.493 0-32 14.507-32 32s14.507 32 32 32h439.893c4.267 0 8.107-0.853 12.373-2.56 7.68-3.413 14.080-9.387 17.493-17.493 2.56-7.68 2.56-16.64-0.427-24.32zM731.733 493.653h-439.467c-4.267 0-8.107 0.853-12.373 2.56-7.68 3.413-14.080 9.387-17.493 17.493-3.413 7.68-3.413 16.64 0 24.32 1.707 3.84 3.84 7.253 6.827 10.24l129.707 129.707c12.373 12.373 32.853 12.373 45.227 0s12.373-32.853 0-45.227l-74.667-75.093h362.667c17.493 0 32-14.507 32-32s-14.507-32-32.427-32z" />
<glyph unicode="&#xe94b;" glyph-name="arrange-square-2" d="M690.773 874.667h-357.547c-155.307 0-247.893-92.587-247.893-247.893v-357.12c0-155.733 92.587-248.32 247.893-248.32h357.12c155.307 0 247.893 92.587 247.893 247.893v357.547c0.427 155.307-92.16 247.893-247.467 247.893zM466.347 228.267c0-4.267-0.853-8.107-2.56-12.373-3.413-7.68-9.387-14.080-17.493-17.493-3.84-1.707-8.107-2.56-12.373-2.56s-8.107 0.853-12.373 2.56c-3.84 1.707-7.253 3.84-10.24 6.827l-129.707 129.707c-12.373 12.373-12.373 32.853 0 45.227s32.853 12.373 45.227 0l75.093-75.093v362.667c0 17.493 14.507 32 32 32s32-14.507 32-32v-439.467h0.427zM741.973 515.413c-6.4-6.4-14.507-9.387-22.613-9.387s-16.213 2.987-22.613 9.387l-75.093 75.093v-362.667c0-17.493-14.507-32-32-32s-32 14.507-32 32v439.893c0 4.267 0.853 8.107 2.56 12.373 3.413 7.68 9.387 14.080 17.493 17.493 7.68 3.413 16.64 3.413 24.32 0 3.84-1.707 7.253-3.84 10.24-6.827l129.707-129.707c12.373-12.8 12.373-32.853 0-45.653z" />
<glyph unicode="&#xe94c;" glyph-name="arrange-square-2-copy" d="M640-10.667h-256c-231.68 0-330.667 98.987-330.667 330.667v256c0 231.68 98.987 330.667 330.667 330.667h256c231.68 0 330.667-98.987 330.667-330.667v-256c0-231.68-98.987-330.667-330.667-330.667zM384 842.667c-196.693 0-266.667-69.973-266.667-266.667v-256c0-196.693 69.973-266.667 266.667-266.667h256c196.693 0 266.667 69.973 266.667 266.667v256c0 196.693-69.973 266.667-266.667 266.667h-256zM434.351 196.267c-8.108 0-16.214 2.987-22.614 9.387l-129.707 129.707c-12.373 12.373-12.373 32.853 0 45.227s32.853 12.373 45.227 0l129.708-129.707c12.373-12.373 12.373-32.853 0-45.227-5.973-6.4-14.080-9.387-22.613-9.387zM434.334 196.262c-17.494 0-32 14.507-32 32v439.467c0 17.493 14.507 32 32 32s32-14.507 32-32v-439.893c0-17.493-14.080-31.573-32-31.573zM719.351 506.027c-8.107 0-16.213 2.987-22.613 9.387l-129.707 129.705c-12.373 12.373-12.373 32.853 0 45.227s32.853 12.373 45.227 0l129.707-129.707c12.373-12.373 12.373-32.852 0-45.225-6.4-5.973-14.507-9.387-22.613-9.387zM589.666 196.262c-17.493 0-32 14.507-32 32v439.467c0 17.493 14.507 32 32 32s32-14.507 32-32v-439.893c0-17.493-14.507-31.573-32-31.573z" />
<glyph unicode="&#xe94d;" glyph-name="arrange-square-copy" d="M640-10.667h-256c-231.68 0-330.667 98.987-330.667 330.667v256c0 231.68 98.987 330.667 330.667 330.667h256c231.68 0 330.667-98.987 330.667-330.667v-256c0-231.68-98.987-330.667-330.667-330.667zM384 842.667c-196.693 0-266.667-69.973-266.667-266.667v-256c0-196.693 69.973-266.667 266.667-266.667h256c196.693 0 266.667 69.973 266.667 266.667v256c0 196.693-69.973 266.667-266.667 266.667h-256zM602.061 208.64c-8.107 0-16.213 2.987-22.613 9.387-12.373 12.373-12.373 32.853 0 45.227l129.707 129.707c12.373 12.373 32.853 12.373 45.227 0s12.373-32.853 0-45.227l-129.707-129.707c-5.973-5.973-14.080-9.387-22.613-9.387zM731.716 338.342h-439.466c-17.493 0-32 14.507-32 32s14.507 32 32 32h439.893c17.493 0 32-14.507 32-32s-14.507-32-32.427-32zM292.227 493.649c-8.107 0-16.213 2.987-22.613 9.387-12.373 12.373-12.373 32.854 0 45.228l129.707 129.707c12.373 12.373 32.855 12.373 45.228 0s12.373-32.853 0-45.227l-129.708-129.708c-6.4-6.4-14.507-9.387-22.613-9.387zM731.716 493.645h-439.466c-17.493 0-32 14.507-32 32s14.507 32.001 32 32.001h439.893c17.493 0 32-14.507 32-32.001s-14.507-32-32.427-32z" />
<glyph unicode="&#xe94e;" glyph-name="arrow" d="M512-10.667c-17.493 0-32 14.507-32 32v85.333c0 17.493 14.507 32 32 32s32-14.507 32-32v-85.333c0-17.493-14.507-32-32-32zM512 160c-17.493 0-32 14.507-32 32v85.333c0 17.493 14.507 32 32 32s32-14.507 32-32v-85.333c0-17.493-14.507-32-32-32zM512 330.667c-17.493 0-32 14.507-32 32v128c0 182.187 148.48 330.667 330.667 330.667h128c17.493 0 32-14.507 32-32s-14.507-32-32-32h-128c-147.2 0-266.667-119.467-266.667-266.667v-128c0-17.493-14.507-32-32-32zM512 330.667c-17.493 0-32 14.507-32 32v128c0 147.2-119.467 266.667-266.667 266.667h-128c-17.493 0-32 14.507-32 32s14.507 32 32 32h128c182.187 0 330.667-148.48 330.667-330.667v-128c0-17.493-14.507-32-32-32zM170.727 671.94c-8.107 0-16.213 2.987-22.613 9.387l-85.333 85.333c-12.373 12.373-12.373 32.853 0 45.227l85.333 85.333c12.373 12.373 32.853 12.373 45.227 0s12.373-32.853 0-45.227l-62.72-62.72 62.72-62.72c12.373-12.373 12.373-32.853 0-45.227-6.4-6.4-14.507-9.387-22.613-9.387zM853.393 671.94c-8.107 0-16.213 2.987-22.613 9.387-12.373 12.373-12.373 32.853 0 45.227l62.72 62.72-62.72 62.72c-12.373 12.373-12.373 32.853 0 45.227s32.853 12.373 45.227 0l85.333-85.333c12.373-12.373 12.373-32.853 0-45.227l-85.333-85.333c-6.4-6.4-14.507-9.387-22.613-9.387z" />
<glyph unicode="&#xe94f;" glyph-name="arrow-2" d="M928 672.887c0 8.533-3.413 16.64-9.387 22.613l-158.72 158.72c-12.373 12.373-32.853 12.373-45.227 0s-12.373-32.853 0-45.227l104.533-104.533h-691.2c-17.493 0-32-14.507-32-32s14.507-31.573 32-31.573h690.773l-104.107-104.107c-12.373-12.372-12.373-32.852 0-45.226 6.4-6.4 14.507-9.387 22.613-9.387s16.213 2.987 22.613 9.387l158.293 158.292c2.987 2.987 5.547 6.827 7.253 11.093 0 0.427 0 0.853 0.427 1.28 1.28 3.413 2.133 6.827 2.133 10.667zM896 255.219h-690.773l104.107 104.107c12.373 12.373 12.373 32.853 0 45.227s-32.853 12.373-45.227 0l-158.293-158.293c-2.987-2.987-5.547-6.827-7.253-11.093 0-0.427 0-0.853-0.427-1.28-1.28-3.413-2.133-7.253-2.133-11.093 0-8.533 3.413-16.64 9.387-22.613l158.72-158.72c6.4-6.4 14.507-9.387 22.613-9.387s16.213 2.987 22.613 9.387c12.373 12.373 12.373 32.853 0 45.227l-104.533 104.533h691.2c17.493 0 32 14.507 32 32s-14.507 32-32 32z" />
<glyph unicode="&#xe950;" glyph-name="arrow-2-copy" d="M737.229 482.125c-8.107 0-16.213 2.987-22.613 9.387-12.373 12.373-12.373 32.853 0 45.227l136.107 136.107-136.107 136.107c-12.373 12.373-12.373 32.853 0 45.226 12.369 12.373 32.849 12.373 45.222 0l158.724-158.721c5.973-5.973 9.387-14.079 9.387-22.612s-3.413-16.641-9.387-22.614l-158.724-158.719c-6.4-5.973-14.502-9.387-22.609-9.387zM896 640.854h-768c-17.493 0-32 14.507-32 32s14.507 32 32 32h768c17.493 0 32-14.507 32-32s-14.507-32-32-32zM286.719 32c-8.107 0-16.212 2.987-22.612 9.387l-158.721 158.72c-5.973 5.973-9.385 14.080-9.385 22.613s3.412 16.64 9.385 22.613l158.721 158.72c12.373 12.373 32.853 12.373 45.227 0s12.373-32.853 0-45.227l-136.107-136.107 136.107-136.102c12.373-12.373 12.373-32.858 0-45.231-5.973-6.4-14.081-9.387-22.615-9.387zM896 191.147h-768c-17.493 0-32 14.507-32 32s14.507 32 32 32h768c17.493 0 32-14.507 32-32s-14.507-32-32-32z" />
<glyph unicode="&#xe951;" glyph-name="arrow-3" d="M468.54 695.893l-158.293 158.293c-2.987 2.987-6.827 5.547-11.093 7.253-0.427 0-0.853 0-1.28 0.427-3.413 1.28-6.827 2.133-10.667 2.133-8.533 0-16.64-3.413-22.613-9.387l-159.147-158.72c-12.373-12.373-12.373-32.853 0-45.227s32.853-12.373 45.227 0l104.533 104.533v-691.2c0-17.493 14.507-32 32-32s32 14.507 32 32v690.773l104.107-104.107c6.4-6.4 14.506-9.387 22.613-9.387s16.213 2.987 22.613 9.387c12.373 12.373 12.373 32.427 0 45.227zM918.541 245.333c-12.373 12.373-32.853 12.373-45.227 0l-104.533-104.533v691.2c0 17.493-14.507 32-32 32s-32-14.507-32-32v-690.773l-104.107 104.107c-12.373 12.373-32.853 12.373-45.227 0s-12.373-32.853 0-45.227l158.293-158.293c2.987-2.987 6.827-5.547 11.093-7.253 0.427 0 0.853 0 1.28-0.427 3.413-1.28 7.253-2.133 11.093-2.133 8.533 0 16.64 3.413 22.613 9.387l158.72 158.72c12.373 12.8 12.373 32.853 0 45.227z" />
<glyph unicode="&#xe952;" glyph-name="arrow-3-copy" d="M445.837 641.281c-8.107 0-16.218 2.985-22.617 9.385l-136.107 136.107-136.107-136.107c-12.373-12.373-32.853-12.373-45.227 0s-12.373 32.853 0 45.227l158.721 158.721c5.973 5.973 14.079 9.385 22.612 9.385s16.641-3.412 22.615-9.385l158.718-158.721c12.373-12.373 12.373-32.853 0-45.227-6.4-6.4-14.507-9.385-22.609-9.385zM287.167 32c-17.493 0-32 14.507-32 32v768c0 17.493 14.507 32 32 32s32-14.507 32-32v-768c0-17.493-14.507-32-32-32zM737.28 32.013c-8.533 0-16.64 3.409-22.613 9.382l-158.72 158.724c-12.373 12.373-12.373 32.853 0 45.227s32.853 12.373 45.227 0l136.107-136.107 136.102 136.107c12.373 12.373 32.858 12.373 45.231 0s12.373-32.853 0-45.227l-158.72-158.724c-5.973-5.973-14.507-9.382-22.613-9.382zM736.832 32c-17.493 0-32 14.507-32 32v768c0 17.493 14.507 32 32 32s32-14.507 32-32v-768c0-17.493-14.080-32-32-32z" />
<glyph unicode="&#xe953;" glyph-name="arrow-bottom" d="M398.045 704h227.84c141.653 0 199.253-100.267 128.853-222.72l-31.573-54.613c-7.68-13.227-21.76-21.333-37.12-21.333h-348.16c-15.36 0-29.44 8.107-37.12 21.333l-31.573 54.613c-70.4 122.453-12.8 222.72 128.853 222.72zM375.105 362.667h274.346c16.64 0 26.88-17.92 18.347-32l-27.307-46.933c-70.4-122.453-186.453-122.453-256.852 0l-27.307 46.933c-8.107 14.080 2.133 32 18.773 32z" />
<glyph unicode="&#xe954;" glyph-name="arrow-bottom-copy" d="M511.957 160c-60.587 0-116.052 38.4-156.159 107.947l-113.92 197.547c-40.533 69.547-45.653 136.533-15.36 189.013s91.307 81.493 171.52 81.493h227.839c80.213 0 141.227-29.013 171.52-81.493s24.747-119.893-15.36-189.44l-113.92-197.547c-40.107-69.12-95.573-107.52-156.16-107.52zM398.039 672c-56.747 0-97.707-17.493-116.053-49.493-18.773-32-13.227-76.373 14.933-125.013l113.92-197.547c28.159-49.067 63.999-75.947 100.692-75.947s72.533 26.88 100.693 75.947l113.92 197.547c28.16 49.067 33.707 93.44 15.36 125.44s-59.733 49.493-116.053 49.493h-227.412v-0.427z" />
<glyph unicode="&#xe955;" glyph-name="arrow-circle-down" d="M512 874.667c-235.093 0-426.667-191.573-426.667-426.667s191.573-426.667 426.667-426.667c235.093 0 426.667 191.573 426.667 426.667s-191.573 426.667-426.667 426.667zM685.227 479.147l-150.613-150.613c-6.4-6.4-14.507-9.387-22.613-9.387s-16.213 2.987-22.613 9.387l-150.613 150.613c-12.373 12.373-12.373 32.853 0 45.227s32.853 12.373 45.227 0l128-128 128 128c12.373 12.373 32.853 12.373 45.227 0s12.373-32.427 0-45.227z" />
<glyph unicode="&#xe956;" glyph-name="arrow-circle-down-copy" d="M512-10.667c-253.013 0-458.667 205.653-458.667 458.667s205.653 458.667 458.667 458.667c253.013 0 458.667-205.653 458.667-458.667s-205.653-458.667-458.667-458.667zM512 842.667c-217.6 0-394.667-177.067-394.667-394.667s177.067-394.667 394.667-394.667c217.6 0 394.667 177.067 394.667 394.667s-177.067 394.667-394.667 394.667zM512.009 319.578c-8.107 0-16.213 2.987-22.613 9.387l-150.615 150.613c-12.373 12.373-12.373 32.853 0 45.227s32.853 12.372 45.227 0l128.002-128 128 128c12.373 12.372 32.853 12.372 45.227 0s12.373-32.853 0-45.227l-150.613-150.613c-6.4-6.4-14.507-9.387-22.613-9.387z" />
<glyph unicode="&#xe957;" glyph-name="arrow-circle-left" d="M512 874.667c-235.093 0-426.667-191.573-426.667-426.667s191.573-426.667 426.667-426.667c235.093 0 426.667 191.573 426.667 426.667s-191.573 426.667-426.667 426.667zM588.373 320c12.373-12.373 12.373-32.853 0-45.227-6.4-6.4-14.507-9.387-22.613-9.387s-16.213 2.987-22.613 9.387l-150.613 150.613c-12.373 12.373-12.373 32.853 0 45.227l150.613 150.613c12.373 12.373 32.853 12.373 45.227 0s12.373-32.853 0-45.227l-128-128 128-128z" />
<glyph unicode="&#xe958;" glyph-name="arrow-circle-left-copy" d="M512-10.667c-253.013 0-458.667 205.653-458.667 458.667s205.653 458.667 458.667 458.667c253.013 0 458.667-205.653 458.667-458.667s-205.653-458.667-458.667-458.667zM512 842.667c-217.6 0-394.667-177.067-394.667-394.667s177.067-394.667 394.667-394.667c217.6 0 394.667 177.067 394.667 394.667s-177.067 394.667-394.667 394.667zM565.756 265.378c-8.107 0-16.213 2.987-22.613 9.387l-150.612 150.613c-12.373 12.373-12.373 32.853 0 45.227l150.612 150.615c12.373 12.373 32.853 12.373 45.227 0s12.373-32.853 0-45.227l-128-128.002 128-128c12.373-12.373 12.373-32.853 0-45.227-5.973-6.4-14.080-9.387-22.613-9.387z" />
<glyph unicode="&#xe959;" glyph-name="arrow-circle-right" d="M512 874.667c-235.093 0-426.667-191.573-426.667-426.667s191.573-426.667 426.667-426.667c235.093 0 426.667 191.573 426.667 426.667s-191.573 426.667-426.667 426.667zM631.040 425.387l-150.613-150.613c-6.4-6.4-14.507-9.387-22.613-9.387s-16.213 2.987-22.613 9.387c-12.373 12.373-12.373 32.853 0 45.227l128 128-128 128c-12.373 12.373-12.373 32.853 0 45.227s32.853 12.373 45.227 0l150.613-150.613c12.8-12.373 12.8-32.853 0-45.227z" />
<glyph unicode="&#xe95a;" glyph-name="arrow-circle-right-copy" d="M512-10.667c-253.013 0-458.667 205.653-458.667 458.667s205.653 458.667 458.667 458.667c253.013 0 458.667-205.653 458.667-458.667s-205.653-458.667-458.667-458.667zM512 842.667c-217.6 0-394.667-177.067-394.667-394.667s177.067-394.667 394.667-394.667c217.6 0 394.667 177.067 394.667 394.667s-177.067 394.667-394.667 394.667zM458.227 265.378c-8.107 0-16.213 2.987-22.613 9.387-12.374 12.373-12.374 32.853 0 45.227l128 128-128 128.002c-12.374 12.373-12.374 32.853 0 45.227s32.853 12.373 45.227 0l150.613-150.615c12.373-12.373 12.373-32.853 0-45.227l-150.613-150.613c-6.4-6.4-14.507-9.387-22.613-9.387z" />
<glyph unicode="&#xe95b;" glyph-name="arrow-circle-up" d="M512 874.667c-235.093 0-426.667-191.573-426.667-426.667s191.573-426.667 426.667-426.667c235.093 0 426.667 191.573 426.667 426.667s-191.573 426.667-426.667 426.667zM685.227 371.627c-6.4-6.4-14.507-9.387-22.613-9.387s-16.213 2.987-22.613 9.387l-128 128-128-128c-12.373-12.373-32.853-12.373-45.227 0s-12.373 32.853 0 45.227l150.613 150.613c12.373 12.373 32.853 12.373 45.227 0l150.613-150.613c12.373-12.8 12.373-32.853 0-45.227z" />
<glyph unicode="&#xe95c;" glyph-name="arrow-circle-up-copy" d="M512-10.667c-253.013 0-458.667 205.653-458.667 458.667s205.653 458.667 458.667 458.667c253.013 0 458.667-205.653 458.667-458.667s-205.653-458.667-458.667-458.667zM512 842.667c-217.6 0-394.667-177.067-394.667-394.667s177.067-394.667 394.667-394.667c217.6 0 394.667 177.067 394.667 394.667s-177.067 394.667-394.667 394.667zM662.622 362.244c-8.107 0-16.213 2.987-22.613 9.387l-128 128-128.002-128c-12.373-12.373-32.853-12.373-45.227 0s-12.373 32.853 0 45.227l150.615 150.612c12.373 12.373 32.853 12.373 45.227 0l150.613-150.612c12.373-12.373 12.373-32.853 0-45.227-6.4-6.4-14.507-9.387-22.613-9.387z" />
<glyph unicode="&#xe95d;" glyph-name="arrow-copy" d="M512-10.667c-17.493 0-32 14.507-32 32v85.333c0 17.493 14.507 32 32 32s32-14.507 32-32v-85.333c0-17.493-14.507-32-32-32zM512 160c-17.493 0-32 14.507-32 32v85.333c0 17.493 14.507 32 32 32s32-14.507 32-32v-85.333c0-17.493-14.507-32-32-32zM512 330.667c-17.493 0-32 14.507-32 32v128c0 182.187 148.48 330.667 330.667 330.667h128c17.493 0 32-14.507 32-32s-14.507-32-32-32h-128c-147.2 0-266.667-119.467-266.667-266.667v-128c0-17.493-14.507-32-32-32zM512 330.667c-17.493 0-32 14.507-32 32v128c0 147.2-119.467 266.667-266.667 266.667h-128c-17.493 0-32 14.507-32 32s14.507 32 32 32h128c182.187 0 330.667-148.48 330.667-330.667v-128c0-17.493-14.507-32-32-32zM170.644 672.003c-8.107 0-16.215 2.987-22.615 9.387l-85.333 85.333c-12.373 12.373-12.373 32.853 0 45.227l85.333 85.333c12.373 12.373 32.856 12.373 45.229 0s12.373-32.853 0-45.227l-62.721-62.72 62.721-62.72c12.373-12.373 12.373-32.853 0-45.227-6.4-6.4-14.508-9.387-22.615-9.387zM853.312 672.003c-8.107 0-16.213 2.987-22.613 9.387-12.373 12.373-12.373 32.853 0 45.227l62.72 62.72-62.72 62.72c-12.373 12.373-12.373 32.853 0 45.227s32.853 12.373 45.227 0l85.333-85.333c12.373-12.373 12.373-32.853 0-45.227l-85.333-85.333c-6.4-6.4-14.507-9.387-22.613-9.387z" />
<glyph unicode="&#xe95e;" glyph-name="arrow-down" d="M764.535 611h-505.175c-40.96 0-61.44-49.493-32.427-78.507l221.015-221.013c35.413-35.413 93.013-35.413 128.427 0l221.013 221.013c28.587 29.014 8.107 78.507-32.853 78.507z" />
<glyph unicode="&#xe95f;" glyph-name="arrow-down-1" d="M690.773 874.667h-357.547c-155.307 0-247.893-92.587-247.893-247.893v-357.12c0-155.733 92.587-248.32 247.893-248.32h357.12c155.307 0 247.893 92.587 247.893 247.893v357.547c0.427 155.307-92.16 247.893-247.467 247.893zM717.653 352.427l-183.040-183.040c-5.973-5.973-14.080-9.387-22.613-9.387s-16.64 3.413-22.613 9.387l-183.040 183.040c-12.373 12.373-12.373 32.853 0 45.227s32.853 12.373 45.227 0l128.427-128.427v434.773c0 17.493 14.507 32 32 32s32-14.507 32-32v-434.773l128.427 128.427c12.373 12.373 32.853 12.373 45.227 0 6.4-6.4 9.387-14.507 9.387-22.613s-3.413-16.64-9.387-22.613z" />
<glyph unicode="&#xe960;" glyph-name="arrow-down-1-copy" d="M511.979 243.196c-29.867 0-59.733 11.52-82.347 34.133l-278.185 278.185c-12.373 12.373-12.373 32.853 0 45.227s32.853 12.373 45.227 0l278.185-278.185c20.48-20.48 53.76-20.48 74.24 0l278.187 278.185c12.373 12.373 32.853 12.373 45.227 0s12.373-32.853 0-45.227l-278.187-278.185c-22.613-22.613-52.48-34.133-82.347-34.133z" />
<glyph unicode="&#xe961;" glyph-name="arrow-down-2" d="M512 874.667c-235.52 0-426.667-191.147-426.667-426.667s191.147-426.667 426.667-426.667c235.52 0 426.667 191.147 426.667 426.667s-191.147 426.667-426.667 426.667zM662.613 404.053l-128-128c-6.4-6.4-14.507-9.387-22.613-9.387s-16.213 2.987-22.613 9.387l-128 128c-12.373 12.373-12.373 32.853 0 45.227s32.853 12.373 45.227 0l73.387-73.387v221.44c0 17.493 14.507 32 32 32s32-14.507 32-32v-221.44l73.387 73.387c12.373 12.373 32.853 12.373 45.227 0s12.373-32.853 0-45.227z" />
<glyph unicode="&#xe962;" glyph-name="arrow-down-2-copy" d="M512-10.667c-253.013 0-458.667 205.653-458.667 458.667s205.653 458.667 458.667 458.667c253.013 0 458.667-205.653 458.667-458.667s-205.653-458.667-458.667-458.667zM512 842.667c-217.6 0-394.667-177.067-394.667-394.667s177.067-394.667 394.667-394.667c217.6 0 394.667 177.067 394.667 394.667s-177.067 394.667-394.667 394.667zM512 309.333c-17.493 0-32 14.507-32 32v256c0 17.493 14.507 32 32 32s32-14.507 32-32v-256c0-17.493-14.507-32-32-32zM511.979 266.671c-8.107 0-16.213 2.987-22.613 9.387l-128.002 128c-12.373 12.373-12.373 32.853 0 45.227s32.853 12.373 45.227 0l105.389-105.387 105.387 105.387c12.373 12.373 32.853 12.373 45.227 0s12.373-32.853 0-45.227l-128-128c-6.4-6.4-14.507-9.387-22.613-9.387z" />
<glyph unicode="&#xe963;" glyph-name="arrow-down-copy" d="M511.962 53.329c-8.107 0-16.213 2.987-22.613 9.387l-258.985 258.987c-12.373 12.373-12.373 32.853 0 45.227s32.853 12.373 45.227 0l236.372-236.373 236.373 236.373c12.373 12.373 32.853 12.373 45.227 0s12.373-32.853 0-45.227l-258.987-258.987c-6.4-6.4-14.507-9.387-22.613-9.387zM512 60.587c-17.493 0-32 14.507-32 32v718.080c0 17.493 14.507 32 32 32s32-14.507 32-32v-718.080c0-17.493-14.507-32-32-32z" />
<glyph unicode="&#xe964;" glyph-name="arrow-left" d="M768 561.955v-227.84c0-141.653-100.267-199.253-222.72-128.853l-54.613 31.573c-13.227 7.68-21.333 21.76-21.333 37.12v348.16c0 15.36 8.107 29.44 21.333 37.12l54.613 31.573c122.453 70.4 222.72 12.8 222.72-128.853zM426.607 584.895v-274.346c0-16.64-17.92-26.88-32-18.347l-46.933 27.307c-122.453 70.4-122.453 186.453 0 256.852l46.933 27.307c14.080 8.107 32-2.133 32-18.773z" />
<glyph unicode="&#xe965;" glyph-name="arrow-left-1" d="M690.773 874.667h-357.547c-155.307 0-247.893-92.587-247.893-247.893v-357.12c0-155.733 92.587-248.32 247.893-248.32h357.12c155.307 0 247.893 92.587 247.893 247.893v357.547c0.427 155.307-92.16 247.893-247.467 247.893zM768 416h-434.773l128.427-128.427c12.373-12.373 12.373-32.853 0-45.227-6.4-6.4-14.507-9.387-22.613-9.387s-16.213 2.987-22.613 9.387l-183.040 183.040c-5.973 5.973-9.387 14.080-9.387 22.613s3.413 16.64 9.387 22.613l183.040 183.040c12.373 12.373 32.853 12.373 45.227 0s12.373-32.853 0-45.227l-128.427-128.427h434.773c17.493 0 32-14.507 32-32s-14.507-32-32-32z" />
<glyph unicode="&#xe966;" glyph-name="arrow-left-1-copy" d="M644.267 142.942c-35.84 0-75.093 11.52-114.773 34.56l-197.547 113.92c-69.547 40.533-107.947 96-107.947 156.587s38.4 116.053 107.947 156.16l197.547 113.92c69.547 40.107 136.533 45.653 189.44 15.36 52.48-30.293 81.493-91.307 81.493-171.52v-227.84c0-80.213-29.013-141.227-81.493-171.52-22.613-13.227-47.787-19.627-74.667-19.627zM644.267 688.649c-24.747 0-52.907-8.533-82.773-26.027l-197.547-113.92c-49.067-28.16-75.947-64-75.947-100.693s26.88-72.533 75.947-100.693l197.547-113.92c49.067-28.16 93.44-33.707 125.44-15.36s49.493 59.733 49.493 116.053v227.84c0 56.32-17.493 97.707-49.493 116.053-12.8 7.253-27.307 10.667-42.667 10.667z" />
<glyph unicode="&#xe967;" glyph-name="arrow-left-2" d="M512 874.667c-235.52 0-426.667-191.147-426.667-426.667s191.147-426.667 426.667-426.667c235.52 0 426.667 191.147 426.667 426.667s-191.147 426.667-426.667 426.667zM661.333 416h-221.44l73.387-73.387c12.373-12.373 12.373-32.853 0-45.227-6.4-6.4-14.507-9.387-22.613-9.387s-16.213 2.987-22.613 9.387l-128 128c-12.373 12.373-12.373 32.853 0 45.227l128 128c12.373 12.373 32.853 12.373 45.227 0s12.373-32.853 0-45.227l-73.387-73.387h221.44c17.493 0 32-14.507 32-32s-14.507-32-32-32z" />
<glyph unicode="&#xe968;" glyph-name="arrow-left-2-copy" d="M639.97 78.080c-8.107 0-16.213 2.987-22.613 9.387l-278.187 278.187c-45.227 45.227-45.227 119.467 0 164.693l278.187 278.186c12.373 12.373 32.853 12.373 45.227 0s12.373-32.853 0-45.227l-278.187-278.186c-20.48-20.48-20.48-53.76 0-74.24l278.187-278.187c12.373-12.373 12.373-32.853 0-45.227-6.4-5.973-14.507-9.387-22.613-9.387z" />
<glyph unicode="&#xe969;" glyph-name="arrow-left-3" d="M596.407 733.066l-136.96-136.96-84.054-83.628c-35.413-35.413-35.413-93.013 0-128.427l221.014-221.013c29.013-29.013 78.507-8.107 78.507 32.427v505.175c0 40.96-49.493 61.44-78.507 32.427z" />
</font>
</defs>
</svg>
